Ссылка на приватное зеркало нашего сайта всего за 1$. Внимание количество ограничено!!!

2 сезон

iTunes

iTunes

1

iTunes

iTunes

iTunes

WEBRip

iTunes

30
pack

Вам бонус

ВАЖНО

!!Акция!!

Alien_RageХит недели

RePack

Horizon Zero Dawn

ИГРА 18+

pack

RePack

jed

!!Акция!!

Alien_Rage

RePack

fifa19

RePack

Assassins Creed: Odyssey

RePack

NEED FOR SPEED™ PAYBACK

4 сезон

9 сезон

Бесстыжие 9 сезон

Все сериалы

все сериалы на PB.wtf

RePack

FAR CRY 5
  

Осторожно: Грамп! / Here Comes the Grump (Андрес Кутерье) [2018, мультфильм, приключения, комедия, фэнтези, семейный, BDRip 720p] DUB [Line] pb.wtf

Осторожно: Грамп! через торрент pb.wtf

Размер: 4.43 GB | Добавлен: 2 года 1 мес. назад | Торрент скачан:116 раз
Скачать  

08-08-2018 18:47 Осторожно: Грамп! Скачать торрент  

Осторожно: Грамп! / Here Comes the Grump
Год выпуска: 2018
Страна: Великобритания, Мексика, США
Жанр: мультфильм, приключения, комедия, фэнтези, семейный
Продолжительность: 01:38:22
Перевод: Дублированный | Line
Субтитры: отсутствуют

Режиссер: Андрес Кутерье

rating

В ролях:

Лили Коллинз, Тоби Кеббелл, Иэн МакШейн

Описание:

Главный герой мультфильма, мальчик Терри, был уверен, что забавные волшебники, драконы-полицейские, королевство воздушных шариков и другие самые причудливые явления встречаются только в книжках его бабушки. Но бабушка забыла предупредить: её сказки основаны на реальных событиях! Теперь Терри предстоит спасти волшебную страну Игрувию от злого волшебника Грампа, а помогать ему будут мечтательная принцесса Лучик и птичка-навигатор ДжипиСойка. Впереди - много опасных, но весёлых приключений, приятных (и не очень) знакомств и самых неожиданных открытий. Осторожно: сказка начинается!

Качество: BDRip 720p
Формат: MKV

Видео: h.264, 5 995 Кбит/с, 1280x540
Аудио#1: Русский (AC3, 2 ch, 448 Кбит/с)
скриншот  скриншот  скриншот  
Общее
Уникальный идентификатор : 172800289029143945205708664665393434293 (0x82002006D0D38438B471671F7C598EB5)
Полное имя : D:\E.arrivato.il.broncio.2018.D.BDRip.72Op.mkv
Формат : Matroska
Версия формата : Version 2
Размер файла : 4,43 Гбайт
Продолжительность : 1 ч. 38 м.
Режим общего битрейта : Переменный
Общий поток : 6445 Кбит/сек
Дата кодирования : UTC 2018-08-08 17:18:17
Программа кодирования : mkvmerge v8.3.0 ('Over the Horizon') 64bit
Библиотека кодирования : libebml v1.3.1 + libmatroska v1.4.2

Видео
Идентификатор : 1
Формат : AVC
Формат/Информация : Advanced Video Codec
Профиль формата : High@L4.1
Параметр CABAC формата : Да
Параметр RefFrames формата : 4 кадра
Идентификатор кодека : V_MPEG4/ISO/AVC
Продолжительность : 1 ч. 38 м.
Вид битрейта : Переменный
Битрейт : 5995 Кбит/сек
Максимальный битрейт : 6900 Кбит/сек
Ширина : 1280 пикселей
Высота : 540 пикселей
Соотношение сторон : 2,40:1
Режим частоты кадров : Постоянный
Частота кадров : 23,976 (24000/1001) кадра/сек
Стандарт вещания : Component
Цветовое пространство : YUV
Субдискретизация насыщенности : 4:2:0
Битовая глубина : 8 бит
Тип развёртки : Прогрессивная
Бит/(Пиксели*Кадры) : 0.354
Размер потока : 4,03 Гбайт (91%)
Default : Да
Forced : Нет
Цветовой диапазон : Limited
Основные цвета : BT.709
Характеристики трансфера : BT.709
Коэффициенты матрицы : BT.709

Аудио
Идентификатор : 2
Формат : AC-3
Формат/Информация : Audio Coding 3
Расширение режима : CM (complete main)
Параметр Endianness формата : Big
Идентификатор кодека : A_AC3
Продолжительность : 1 ч. 38 м.
Вид битрейта : Постоянный
Битрейт : 448 Кбит/сек
Каналы : 2 канала
Расположение каналов : Front: L R
Частота : 48,0 КГц
Частота кадров : 31,250 кадров/сек (1536 spf)
Метод сжатия : С потерями
Размер потока : 315 Мбайт (7%)
Default : Да
Forced : Нет
pb.wtf



Скачать Осторожно: Грамп! через торрент https://img11.lostpic.net/2018/07/09/8da20141c8658bb5ff665eae8288310d.jpg Скачать фильм Осторожно: Грамп! через торрент бесплантно в хорошем качестве Описание: Главный герой мультфильма, мальчик Терри, был уверен, что забавные волшебники, драконы-полицейские, королевство воздушных шариков ... 10 10 4
Торрент: Зарегистрирован [2018-08-08 18:47] · скачан: 116 раз
Статус: # сомнительно
Размер: 4.43 GB
Как cкачать? Как скачать Осторожно: Грамп! через торрент | qTorrent

% Раздел Тема Автор DL S | L
T Фильмы (мультфильмы) cо спонсором показа (Новинки AVI/MKV) [ 1.37 GB ] Осторожно: Грамп! / Here Comes the Grump [2018 мультфильм HDRip] DUB [Line] bober100 Скачать
1 | 0

28-11-2019 20:33  

Отключить всю рекламу на сайте

    Дорогой пользователь! Огромная просьба, поблагодарите релизера, оцените раздачу и оставьте свои комментарий, если Вы скачали Осторожно: Грамп! через торрент бесплатно! Внесите свою лепту в развитие PiratBit!
    Комментировать посты могут только пользователи прошедшие не сложную регистрацию
    Показать сообщения:    

    Осторожно: Грамп! через торрент
    Скачать бесплатно Осторожно: Грамп!
    Осторожно: Грамп! скачать торрент
    Осторожно: Грамп! смотреть онлайн
    Cкачать фильм Осторожно: Грамп! бесплатно
    Осторожно: Грамп! скачать торрент в хорошем качестве
    Осторожно: Грамп! смотреть онлайн бесплатно в хорошем качестве


    Вы не можете начинать темы
    Вы не можете отвечать на сообщения
    Вы не можете редактировать свои сообщения
    Вы не можете удалять свои сообщения
    Вы не можете голосовать в опросах
    Вы не можете прикреплять файлы к сообщениям
    Вы можете скачивать файлы