Всегда рабочее зеркало без VPN и Proxy просто перед .vidak.icu напиши любое слово или цифру, Пример http://qzrw.vidak.icu

MVO

MVO

1 сезон

1

1 сезон

iTunes

1 сезон

13

1 сезон

Deluxe

pack

Рекомендуем

Repack

30

ВАЖНО

RePack

MK11

RePack

jed

RePack

fifa19

RePack

RDR2

RePack

NEED FOR SPEED™ PAYBACK

Кинопоиск HD

6 сезон

 Острые козырьки 6 сезон

Все сериалы

все сериалы на PB.wtf

RePack

FAR CRY 5
  
Magnet ссылка

Мстители: Война бесконечности / Avengers: Infinity War (Энтони Руссо, Джо Руссо) [2018, фантастика, фэнтези, боевик, UHD BDRip 2160p] [SDR] DUB (rus, ukr) [Лицензия] pb.wtf

Мстители: Война бесконечности через торрент pb.wtf

Размер: 38.77 GB | Добавлен: 3 года 10 мес. назад | Торрент скачан:174 раза
Смотреть онлайн Мстители: Война бесконечности | Скачать    Ребята, помогите собрать деньги на оплату серверов!!!

09-08-2018 02:55 Мстители: Война бесконечности Скачать торрент  

Мстители: Война бесконечности / Avengers: Infinity War

Год выпуска: 2018
Страна: США
Жанр: фантастика, фэнтези, боевик, приключения
Продолжительность: 02:29:21
Перевод: Дублированный | Лицензия
Субтитры: Русские (Forced, Full), английские (Full, SDH), украинские (Forced)
Режиссер: Энтони Руссо , Джо Руссо
В ролях:

Роберт Дауни мл. (Tony Stark / Iron Man), Крис Хемсворт (Thor), Марк Руффало (Bruce Banner / Hulk), Крис Эванс (Steve Rogers / Captain America), Скарлетт Йоханссон (Natasha Romanoff / Black Widow), Дон Чидл (James Rhodes / War Machine), Бенедикт Камбербэтч (Doctor Strange), Том Холланд (Peter Parker / Spider-Man), Чедвик Боузман (T'Challa / Black Panther), Зои Салдана (Gamora), Карен Гиллан (Nebula), Том Хиддлстон (Loki)
Описание:
Пока Мстители и их союзники продолжают защищать мир от различных опасностей, с которыми не смог бы справиться один супергерой, новая угроза возникает из космоса: Танос. Межгалактический тиран преследует цель собрать все шесть Камней Бесконечности - артефакты невероятной силы, с помощью которых можно менять реальность по своему желанию. Всё, с чем Мстители сталкивались ранее, вело к этому моменту - судьба Земли никогда ещё не была столь неопределённой.
Рейтинг:

MPAA: PG-13 - Детям до 13 лет просмотр не желателен
Качество: UHD BDRip 2160p | SDR
Формат: MKV
Видео: MPEG-4 AVC, 30.6 Mбит/с, 3840x1608, 23.976 Кадр/с
Аудио #1: Русский / (AC3, 6 ch, 640 Кбит/c) | Дублированный_Лицензия |
Аудио #2: Украинский / (AC3, 6 ch, 640 Кбит/c) | Дублированный_Лицензия |
Аудио #3: Английский / (TrueHD, 8 ch, 4534 Кбит/c) | Оригинал |
Аудио #4: Английский / (AC3, 6 ch, 640 Кбит/c) | Оригинал |
Навигация по главам: есть
Общее
Уникальный идентификатор : 253823954666977978960289419157306257013 (0xBEF4B72A536EC5B5A6EB691065AEAE75)
Полное имя : G:\Avengers.Infinity.War.2018.2160p.BluRay.SDR.8bit.UHD.4K.BDRip.x264.Master5.mkv
Формат : Matroska
Версия формата : Version 4 / Version 2
Размер файла : 38,8 Гбайт
Продолжительность : 2 ч. 29 м.
Режим общего битрейта : Переменный
Общий поток : 37,2 Мбит/сек
Название фильма : Avengers.Infinity.War.2018.2160p.BluRay.SDR.8bit.UHD.4K.BDRip.x264.Master5
Дата кодирования : UTC 2018-09-18 14:54:27
Программа кодирования : mkvmerge v7.9.0 ('Birds') 64bit
Библиотека кодирования : libebml v1.3.1 + libmatroska v1.4.2
Обложка : Yes
Attachments : small_cover.jpg / small_cover_land.jpg / cover.jpg / cover_land.jpg

Видео
Идентификатор : 1
Формат : AVC
Формат/Информация : Advanced Video Codec
Профиль формата : [email protected]
Настройки формата : CABAC / 5 Ref Frames
Параметр CABAC формата : Да
Параметр RefFrames формата : 5 кадров
Идентификатор кодека : V_MPEG4/ISO/AVC
Продолжительность : 2 ч. 29 м.
Битрейт : 30,6 Мбит/сек
Ширина : 3840 пикселей
Высота : 1608 пикселей
Соотношение сторон : 2,40:1
Режим частоты кадров : Постоянный
Частота кадров : 23,976 (24000/1001) кадра/сек
Цветовое пространство : YUV
Субдискретизация насыщенности : 4:2:0
Битовая глубина : 8 бит
Тип развёртки : Прогрессивная
Бит/(Пиксели*Кадры) : 0.207
Размер потока : 32,0 Гбайт (82%)
Заголовок : Avengers.Infinity.War.2018.2160p.BluRay.SDR.8bit.UHD.4K.BDRip.x264.Master5
Библиотека кодирования : x264 core 155 r2901 7d0ff22
Настройки программы : cabac=1 / ref=5 / deblock=1:-1:-1 / analyse=0x3:0x113 / me=umh / subme=10 / psy=1 / psy_rd=1.00:0.15 / mixed_ref=1 / me_range=48 / chroma_me=1 / trellis=2 / 8x8dct=1 / cqm=0 / deadzone=21,11 / fast_pskip=1 / chroma_qp_offset=-3 / threads=50 / lookahead_threads=4 / sliced_threads=0 / nr=0 / decimate=0 / interlaced=0 / bluray_compat=0 / constrained_intra=0 / bframes=3 / b_pyramid=2 / b_adapt=2 / b_bias=0 / direct=3 / weightb=1 / open_gop=0 / weightp=2 / keyint=250 / keyint_min=23 / scenecut=40 / intra_refresh=0 / rc_lookahead=50 / rc=crf / mbtree=1 / crf=18.0 / qcomp=0.60 / qpmin=0 / qpmax=69 / qpstep=4 / ip_ratio=1.40 / aq=1:1.00
Default : Да
Forced : Нет

Аудио #1
Идентификатор : 2
Формат : AC-3
Формат/Информация : Audio Coding 3
Идентификатор кодека : A_AC3
Продолжительность : 2 ч. 29 м.
Вид битрейта : Постоянный
Битрейт : 640 Кбит/сек
Каналы : 6 каналов
Расположение каналов : Front: L C R, Side: L R, LFE
Частота : 48,0 КГц
Частота кадров : 31,250 кадров/сек (1536 SPF)
Битовая глубина : 16 бит
Метод сжатия : С потерями
Размер потока : 684 Мбайт (2%)
Заголовок : Dub license
Язык : Russian
ServiceKind/String : Complete Main
Default : Да
Forced : Да

Аудио #2
Идентификатор : 3
Формат : AC-3
Формат/Информация : Audio Coding 3
Идентификатор кодека : A_AC3
Продолжительность : 2 ч. 29 м.
Вид битрейта : Постоянный
Битрейт : 640 Кбит/сек
Каналы : 6 каналов
Расположение каналов : Front: L C R, Side: L R, LFE
Частота : 48,0 КГц
Частота кадров : 31,250 кадров/сек (1536 SPF)
Битовая глубина : 16 бит
Метод сжатия : С потерями
Размер потока : 684 Мбайт (2%)
Заголовок : Дубляж
Язык : Ukrainian
ServiceKind/String : Complete Main
Default : Нет
Forced : Нет

Аудио #3
Идентификатор : 4
Формат : TrueHD
Профиль формата : TrueHD+Atmos / TrueHD
Идентификатор кодека : A_TRUEHD
Продолжительность : 2 ч. 29 м.
Вид битрейта : Переменный
Битрейт : 4534 Кбит/сек
Максимальный битрейт : 6930 Кбит/сек
Каналы : Object Based / 8 каналов
Расположение каналов : Object Based / Front: L C R, Side: L R, Back: L R, LFE
Частота : / 48,0 КГц
Частота кадров : 1200,000 кадров/сек (40 SPF)
Метод сжатия : Без потерь
Задержка видео : 33 мс.
Размер потока : 4,73 Гбайт (12%)
Язык : English
Default : Нет
Forced : Нет

Аудио #4
Идентификатор : 5
Формат : AC-3
Формат/Информация : Audio Coding 3
Идентификатор кодека : A_AC3
Продолжительность : 2 ч. 29 м.
Вид битрейта : Постоянный
Битрейт : 640 Кбит/сек
Каналы : 6 каналов
Расположение каналов : Front: L C R, Side: L R, LFE
Частота : 48,0 КГц
Частота кадров : 31,250 кадров/сек (1536 SPF)
Битовая глубина : 16 бит
Метод сжатия : С потерями
Задержка видео : 32 мс.
Размер потока : 684 Мбайт (2%)
Язык : English
ServiceKind/String : Complete Main
Default : Нет
Forced : Нет

Текст #1
Идентификатор : 6
Формат : UTF-8
Идентификатор кодека : S_TEXT/UTF8
Идентификатор кодека/Информация : UTF-8 Plain Text
Продолжительность : 2 ч. 12 м.
Битрейт : 0 бит/сек
ElementCount : 14
Размер потока : 373 байт (0%)
Заголовок : Forced
Язык : Russian
Default : Да
Forced : Нет

Текст #2
Идентификатор : 7
Формат : UTF-8
Идентификатор кодека : S_TEXT/UTF8
Идентификатор кодека/Информация : UTF-8 Plain Text
Продолжительность : 2 ч. 28 м.
Битрейт : 64 бит/сек
ElementCount : 1596
Размер потока : 70,4 Кбайт (0%)
Заголовок : Full
Язык : Russian
Default : Нет
Forced : Нет

Текст #3
Идентификатор : 8
Формат : UTF-8
Идентификатор кодека : S_TEXT/UTF8
Идентификатор кодека/Информация : UTF-8 Plain Text
Продолжительность : 2 ч. 28 м.
Битрейт : 42 бит/сек
ElementCount : 1540
Размер потока : 45,9 Кбайт (0%)
Заголовок : Full
Язык : English
Default : Нет
Forced : Нет

Текст #4
Идентификатор : 9
Формат : UTF-8
Идентификатор кодека : S_TEXT/UTF8
Идентификатор кодека/Информация : UTF-8 Plain Text
Продолжительность : 2 ч. 28 м.
Битрейт : 49 бит/сек
ElementCount : 2069
Размер потока : 54,1 Кбайт (0%)
Заголовок : SDH
Язык : English
Default : Нет
Forced : Нет

Текст #5
Идентификатор : 10
Формат : UTF-8
Идентификатор кодека : S_TEXT/UTF8
Идентификатор кодека/Информация : UTF-8 Plain Text
Продолжительность : 2 ч. 17 м.
Битрейт : 0 бит/сек
ElementCount : 18
Размер потока : 552 байт (0%)
Заголовок : Форсированные
Язык : Ukrainian
Default : Нет
Forced : Нет

Меню
00:00:00.000 : en:Chapter 1
00:11:28.729 : en:Chapter 2
00:18:13.884 : en:Chapter 3
00:27:23.808 : en:Chapter 4
00:35:48.813 : en:Chapter 5
00:42:23.541 : en:Chapter 6
00:54:12.874 : en:Chapter 7
00:59:36.739 : en:Chapter 8
01:05:07.153 : en:Chapter 9
01:10:53.666 : en:Chapter 10
01:17:06.955 : en:Chapter 11
01:24:14.758 : en:Chapter 12
01:31:08.004 : en:Chapter 13
01:42:00.405 : en:Chapter 14
01:45:57.809 : en:Chapter 15
01:53:04.068 : en:Chapter 16
01:58:52.917 : en:Chapter 17
02:03:58.180 : en:Chapter 18
02:11:13.282 : en:Chapter 19
02:17:31.284 : en:Chapter 20
pb.wtf



Скачать Мстители: Война бесконечности через торрент https://d.radikal.ru/d09/1808/a5/96da0c7ef4e6.png Скачать, смотреть онлайн Мстители: Война бесконечности бесплантно в хорошем качестве Описание: Пока Мстители и их союзники продолжают защищать мир от различных опасностей, с которыми не смог бы справиться один супергерой, ... 10 10 13
Торрент: Зарегистрирован [2018-09-18 17:24] · скачан: 174 раз
Статус: √ проверено
Размер: 38.77 GB
Как cкачать? Как скачать Мстители: Война бесконечности через торрент | UTorrent

% Раздел Тема Автор DL S | L
Фильмы (HD 720p, 1080p) (48-60 fps) [ 5.8 GB ] Мстители: Война бесконечности / Avengers: Infinity War [2018 WEB-DLRip 720p / 60 FPS ] от R.G. HD-Films slaventi-69 Скачать
2 | 0
Ultra HD (UHD: 2K, 4K, 8K) — видео сверхвысокой чёткости [ 59.35 GB ] Мстители: Война бесконечности / Avengers: Infinity War [2018 UHD BDRemux 2160p] DUB [] + AVO sheker187 Скачать
2 | 1
3D Фильмы [ 12.46 GB ] Мстители: Война бесконечности 3Д / Avengers: Infinity War 3D [2018 BDRip 1080p] [Half OverUnder / Вертикальная анаморфная стереопара] DUB [] bober100 Скачать
1 | 0
Фильмы [HD 720p, 1080p] (Хороший звук DUB, MVO) [ 7.57 GB ] Мстители: Война бесконечности / Avengers: Infinity War [2018 BDRip 1080p HEVC ()] Мичман37 Скачать
3 | 0
3D Фильмы [ 8.68 GB ] Мстители: Война бесконечности в 3D / Avengers: Infinity War in 3D [2018 BDRip 1080p ] Анаглиф slaventi-69 Скачать
1 | 0
Ultra HD (UHD: 2K, 4K, 8K) — видео сверхвысокой чёткости [ 54.04 GB ] Мстители: Война бесконечности / Avengers: Infinity War [2018 UHD BDRemux 2160p] - [] sheker187 Скачать
1 | 1
Фильмы 2018 [DVDrip, WEB-DLRip, HDrip] (DUB, MVO) [ 2.77 GB ] Мстители: Война бесконечности / Avengers: Infinity War [2018 BDRip-AVC] DUB [] bober100 Скачать
1 | 0


Последний раз редактировалось: sheker187 (2018-09-18 17:29), всего редактировалось 2 раз(а)

28-11-2019 20:33  

Отключить вcю реклaмy на сайте

18-09-2018 13:06 Мстители: Война бесконечности Скачать торрент  

Замена на Лицензиюpb.wtf



18-09-2018 17:28 Мстители: Война бесконечности Скачать торрент  

добавлены украинская дорога и форс субтитры.pb.wtf



    Дорогой пользователь! Огромная просьба, поблагодарите релизера, оцените раздачу и оставьте свои комментарий, если Вы скачали Мстители: Война бесконечности через торрент бесплатно!
    Комментировать посты могут только пользователи прошедшие не сложную регистрацию
    Показать сообщения:    

    Мстители: Война бесконечности через торрент
    Скачать бесплатно Мстители: Война бесконечности
    Мстители: Война бесконечности скачать торрент
    Мстители: Война бесконечности смотреть онлайн
    Cкачать фильм Мстители: Война бесконечности бесплатно
    Мстители: Война бесконечности скачать торрент в хорошем качестве
    Мстители: Война бесконечности смотреть онлайн бесплатно в хорошем качестве


    Вы не можете начинать темы
    Вы не можете отвечать на сообщения
    Вы не можете редактировать свои сообщения
    Вы не можете удалять свои сообщения
    Вы не можете голосовать в опросах
    Вы не можете прикреплять файлы к сообщениям
    Вы можете скачивать файлы