Ссылка на приватное зеркало нашего сайта всего за 1$. Внимание количество ограничено!!!

2 сезон

iTunes

1 сезон

1

iTunes

iTunes

iTunes

1 сезон

RePack

30

ИГРА 18+

pack

ВАЖНО

!!Акция!!

Alien_RageХит недели

RePack

MK11
pack

Забери бонус

RePack

jed

!!Акция!!

Alien_Rage

RePack

fifa19

RePack

Assassins Creed: Odyssey

RePack

NEED FOR SPEED™ PAYBACK

4 сезон

9 сезон

Бесстыжие 9 сезон

Все сериалы

все сериалы на PB.wtf

RePack

FAR CRY 5
  

Любовь на миллион / Сезон: 1 / Серии: 1-8 из 8 (Павел Снисаренко) [2013, Мелодрама, HDTV 1080i] pb.wtf

Любовь на миллион через торрент pb.wtf

Размер: 19.33 GB | Добавлен: 2 года 2 мес. назад | Торрент скачан:7 раз
Скачать  

09-08-2018 04:08 Любовь на миллион Скачать торрент  

Любовь на миллион Год выпуска: 2013
Производство: Россия, "Приор"
Жанр: Мелодрама
Продолжительность: ~00:45:00
Субтитры: нет

Режиссёр: Павел Снисаренко

В ролях:

Иван Добронравов, Полина Стрельникова, Елена Захарова, Анатолий Пашинин, Егор Баринов, Василий Мищенко, Ирина Бразговка

Описание:

Народная мудрость гласит "В любви, как на войне, все средства хороши". Но как быть, если ради счастья любимой девушки мужчина решается на обман? Будет ли действовать в этой ситуации мудрость?
Молодая учительница Марина готовится к свадьбе. Ее жених Володя - надежный и обеспеченный человек. Только жизнь с ним слишком скучна и предсказуема: как у бывшего военного, у него всегда все заранее запланировано, просчитано и разложено по полочкам.
И вот накануне свадьбы Марина встречает своего давнего возлюбленного - Олега Шишкина. Пять лет назад у них был роман. Олег даже предлагал Марине пожениться. И хотя Марина всегда верила, что Олега ждет феноменальное будущее, она так и не решилась связать с ним свою судьбу.
Новая встреча с Олегом поражает Марину. Из веселого и амбициозного мечтателя он превратился в бездомного и безработного пьяницу. Женщину охватывает чувство вины, и она решает помочь другу вернуться к нормальной жизни. С этих пор Марина берет судьбу Олега в свои руки - устраивает его на работу в школу, уговаривает бросить пить и снимает для него квартиру у своей лучшей подруги Ирины. Благодетельница и не подозревает, что под маской бомжа скрывается настоящий миллионер, сколотивший в Англии целое состояние. У Олега же есть свой план: притворяясь бездомным, он надеется не допустить свадьбы и вернуть Марину.



Качество: HDTV 1080i
Формат: MPEG-TS

Видео: MPEG4 Video (H264) 1920x1080, ~ 7352 kbps, 25.00fps 0.142 bit/pixel
Аудио: MPEG Audio, 2 канала, 48,0 КГц, ~224 kbps, VBR


Сторонней рекламы нет!
Общее
Идентификатор : 1 (0x1)
Полное имя : D:\Любовь на миллион HDTV 1080i\Lyubov.na.million 01_серия_HDTV_1080i.ts
Формат : MPEG-TS
Размер файла : 2,42 Гбайт
Продолжительность : 43 м.
Общий поток : 7972 Кбит/сек

Видео
Идентификатор : 1901 (0x76D)
Идентификатор меню : 1 (0x1)
Формат : AVC
Формат/Информация : Advanced Video Codec
Профиль формата : High@L4.0
Параметр CABAC формата : Да
Параметр ReFrames формата : 3 кадра
Параметры GOP формата : M=1, N=18
Идентификатор кодека : 27
Продолжительность : 43 м.
Битрейт : 7352 Кбит/сек
Ширина : 1920 пикс.
Высота : 1080 пикс.
Соотношение сторон : 16:9
Частота кадров : 25,000 кадр/сек
Стандарт вещания : Component
Цветовое пространство : YUV
Подвыборка цветности : 4:2:0
Битовая глубина : 8 бит
Тип развёртки : Чересстрочная
Порядок развёртки : Верхнее поле первое
Бит/(Пиксели*Кадры) : 0.142
Размер потока : 2,23 Гбайт (92%)
Основные цвета : BT.709-5, BT.1361, IEC 61966-2-4, SMPTE RP177
Характеристики трансфера : BT.709-5, BT.1361
Коэффициенты матрицы : BT.709-5, BT.1361, IEC 61966-2-4 709, SMPTE RP177

Аудио
Идентификатор : 2901 (0xB55)
Идентификатор меню : 1 (0x1)
Формат : MPEG Audio
Версия формата : Version 1
Профиль формата : Layer 2
Идентификатор кодека : 3
Продолжительность : 43 м.
Вид битрейта : Постоянный
Битрейт : 224 Кбит/сек
Каналы : 2 канала
Частота : 48,0 КГц
Метод сжатия : С потерями
Размер потока : 69,7 Мбайт (3%)
Язык : Russian
Внимание! Раздача ведётся путём добавления новых серий; при каждом добавлении создётся новый торрент. Чтобы начать докачку новой серии, пользователям необходимо сделать следующее:
(1) остановить скачивание,
(2) удалить старый торрент у себя из клиента (старые серии удалять не надо),
(3) скачать новый торрент и запустить его у себя в клиенте вместо старого, при этом указать клиенту путь в старую папку куда и должно происходить скачивание новых серий.
Ваш клиент при этом должен произвести хеширование (проверку) старой папки (если не производит сам - помогите ему сделать это), и будет докачивать только те серии которых у вас ещё нет. Старые серии при этом не удаляются, а продолжают раздаваться!
Eсли вы уже удалили старые серии, то предотвратить повторную закачку старых серий можно, отжав галочку в соответсвующих местах при запуске нового торрента. По возможности, желательно не удалять старые серии как можно дольше чтобы релизёр не столько продолжал раздавать старые серии, а смог сконцентрироваться на новых.
скриншот   скриншот   скриншот  
pb.wtf



Скачать Любовь на миллион через торрент http://i46.fastpic.ru/big/2013/0707/d5/26fd736fb6a87342aa7298d0c70c49d5.jpg Скачать фильм Любовь на миллион через торрент бесплантно в хорошем качестве Описание: Народная мудрость гласит "В любви, как на войне, все средства хороши". Но как быть, если ради счастья любимой девушки мужчина ... 10 10 2
Торрент: Зарегистрирован [2018-08-09 04:08] · скачан: 7 раз
Статус: √ проверено
Размер: 19.33 GB
Как cкачать? Как скачать Любовь на миллион через торрент | qTorrent

28-11-2019 20:33  

Отключить всю рекламу на сайте

    Дорогой пользователь! Огромная просьба, поблагодарите релизера, оцените раздачу и оставьте свои комментарий, если Вы скачали Любовь на миллион через торрент бесплатно! Внесите свою лепту в развитие PiratBit!
    Комментировать посты могут только пользователи прошедшие не сложную регистрацию
    Показать сообщения:    

    Любовь на миллион через торрент
    Скачать бесплатно Любовь на миллион
    Любовь на миллион скачать торрент
    Любовь на миллион смотреть онлайн
    Cкачать фильм Любовь на миллион бесплатно
    Любовь на миллион скачать торрент в хорошем качестве
    Любовь на миллион смотреть онлайн бесплатно в хорошем качестве


    Вы не можете начинать темы
    Вы не можете отвечать на сообщения
    Вы не можете редактировать свои сообщения
    Вы не можете удалять свои сообщения
    Вы не можете голосовать в опросах
    Вы не можете прикреплять файлы к сообщениям
    Вы можете скачивать файлы