2 сезон

iTunes

MVO

1

2 сезон

iTunes

iTunes

1 сезон

RePack

30

Ultimate

ВАЖНО

ИГРА 18+

pack

RePack

MK11
pack

Легкие деньги

RePack

jed

RePack

fifa19

RePack

RDR2

RePack

NEED FOR SPEED™ PAYBACK

4 сезон

9 сезон

Бесстыжие 9 сезон

Все сериалы

все сериалы на PB.wtf

RePack

FAR CRY 5

Anonymous, добрый день, мы не успеваем собрать деньги на оплату серверов за декабрь и январь, помогите нам пожалуйста в это трудное время. В качестве благодарности мы отключим Вам всю рекламу на сайте (укажите свой ник в строку Ваше имя)!

×
  
Magnet ссылка

Лига справедливости / Justice League (Зак Снайдер) [2017, фантастика, фэнтези, боевик, UHD BDRip 2160p] DUB (rus, ukr) [IMAX Edition] pb.wtf

Лига справедливости через торрент pb.wtf

Размер: 24.94 GB | Добавлен: 2 года 5 мес. назад | Торрент скачан:145 раз
Скачать  

09-08-2018 04:18 Лига справедливости Скачать торрент  

Лига справедливости / Justice League«Нельзя спасти мир в одиночку» Год выпуска: 2017
Страна: США, Великобритания, Канада
Жанр: фантастика, фэнтези, боевик, приключения
Продолжительность: 02:00:02
Перевод: Дублированный
Субтитры: Русские, английские, украинские, японские, французский, испанский, китайский, корейский, португальский, арабский, чешский, датские, финские, норвежские, польские, шведские
Режиссер: Зак Снайдер
В ролях:

Бен Аффлек (Batman / Bruce Wayne), Генри Кавилл (Superman / Clark Kent), Эми Адамс (Lois Lane), Галь Гадот (Wonder Woman / Diana Prince), Эзра Миллер (The Flash / Barry Allen), Джейсон Момоа (Aquaman / Arthur Curry), Рэй Фишер (Cyborg / Victor Stone), Джереми Айронс (Alfred), Дайан Лэйн (Martha Kent), Конни Нильсен (Queen Hippolyta), Дж.К. Симмонс (Commissioner Gordon), Киран Хайндс (Steppenwolf, озвучка)
Описание:
Брюс Уэйн, вдохновленный самопожертвованием Супермена, вновь обретает веру в человечество. Он заручается поддержкой новой союзницы, Дианы Принс, чтобы сразиться с еще более могущественным противником. Бэтмен и Чудо-Женщина быстро набирают команду сверхлюдей для борьбы с пробудившейся угрозой. Но несмотря на уникальный состав отряда супергероев - Бэтмен, Чудо-Женщина, Аквамэн, Киборг и Флэш, - быть может, спасать планету от вторжения катастрофических масштабов уже слишком поздно.
Рейтинг:

MPAA: PG-13 - Детям до 13 лет просмотр не желателен
Качество: UHD BDRip 2160p
Формат: MKV
Видео: HEVC, HDR, 24.5 Мбит/с, 3840x2160, 23.976 Кадр/с
Аудио 1: Dolby Digital Audio Russian 448 kbps 5.1 / 48 kHz / 448 kbps
Аудио 2: Dolby Digital Audio Ukrainian 224 kbps 2.0 / 48 kHz / 192 kbps
Аудио 3: Dolby Atmos/TrueHD Audio English 6366 kbps 7.1-Atmos / 48 kHz / 3879 kbps / 24-bit
Аудио 4: Dolby Digital Audio English 448 kbps 5.1 / 48 kHz / 448 kbps
Навигация по главам: есть
EMERALD\Justice.League.2017.2160p.UHD.BluRay.x265-SpaceHD13.mkv
Format : Matroska
Format version : Version 4 / Version 2
File size : 24.9 GiB
Duration : 2 h 0 min
Overall bit rate mode : Variable
Overall bit rate : 29.7 Mb/s
Encoded date : UTC 2018-03-09 14:01:56
Writing application : mkvmerge v20.0.0 ('I Am The Sun') 64-bit
Writing library : libebml v1.3.5 + libmatroska v1.4.8
Cover : Yes
Attachments : cover.jpg.jpg

Video
ID : 1
Format : HEVC
Format/Info : High Efficiency Video Coding
Format profile : Main 10@L5.1@High
Codec ID : V_MPEGH/ISO/HEVC
Duration : 2 h 0 min
Bit rate : 24.5 Mb/s
Width : 3 840 pixels
Height : 2 160 pixels
Display aspect ratio : 16:9
Frame rate mode : Constant
Frame rate : 23.976 (24000/1001) FPS
Color space : YUV
Chroma subsampling : 4:2:0 (Type 2)
Bit depth : 10 bits
Bits/(Pixel*Frame) : 0.123
Stream size : 20.6 GiB (82%)
Title : Justice.League.2017.2160p.UHD.BluRay.x265-SpaceHD13
Writing library : x265 2.7+3-0b781d592c8e:[Windows][GCC 6.3.0][64 bit] 10bit
Encoding settings : cpuid=1173503 / frame-threads=4 / numa-pools=16 / wpp / no-pmode / no-pme / no-psnr / no-ssim / log-level=2 / input-csp=1 / input-res=3840x2160 / interlace=0 / total-frames=172689 / level-idc=51 / high-tier=1 / uhd-bd=0 / ref=4 / no-allow-non-conformance / repeat-headers / annexb / aud / hrd / info / hash=0 / no-temporal-layers / no-open-gop / min-keyint=24 / keyint=240 / gop-lookahead=0 / bframes=4 / b-adapt=2 / b-pyramid / bframe-bias=0 / rc-lookahead=25 / lookahead-slices=4 / scenecut=40 / radl=0 / no-intra-refresh / ctu=64 / min-cu-size=8 / rect / no-amp / max-tu-size=32 / tu-inter-depth=1 / tu-intra-depth=1 / limit-tu=0 / rdoq-level=2 / dynamic-rd=0.00 / no-ssim-rd / signhide / no-tskip / nr-intra=0 / nr-inter=0 / no-constrained-intra / no-strong-intra-smoothing / max-merge=3 / limit-refs=3 / limit-modes / me=3 / subme=3 / merange=57 / temporal-mvp / weightp / no-weightb / no-analyze-src-pics / deblock=-3:-3 / no-sao / no-sao-non-deblock / rd=4 / no-early-skip / rskip / no-fast-intra / no-tskip-fast / no-cu-lossless / no-b-intra / no-splitrd-skip / rdpenalty=0 / psy-rd=2.00 / psy-rdoq=1.00 / no-rd-refine / no-lossless / cbqpoffs=0 / crqpoffs=0 / rc=crf / crf=17.0 / qcomp=0.60 / qpstep=4 / stats-write=0 / stats-read=0 / vbv-maxrate=160000 / vbv-bufsize=160000 / vbv-init=0.9 / crf-max=0.0 / crf-min=0.0 / ipratio=1.40 / pbratio=1.30 / aq-mode=1 / aq-strength=1.00 / cutree / zone-count=0 / no-strict-cbr / qg-size=32 / no-rc-grain / qpmax=69 / qpmin=0 / no-const-vbv / sar=1 / overscan=0 / videoformat=5 / range=0 / colorprim=9 / transfer=16 / colormatrix=9 / chromaloc=1 / chromaloc-top=2 / chromaloc-bottom=2 / display-window=0 / master-display=G(13250,34500)B(7500,3000)R(34000,16000)WP(15635,16450)L(40000000,50) / max-cll=1016,342 / min-luma=0 / max-luma=1023 / log2-max-poc-lsb=8 / vui-timing-info / vui-hrd-info / slices=1 / no-opt-qp-pps / no-opt-ref-list-length-pps / no-multi-pass-opt-rps / scenecut-bias=0.05 / no-opt-cu-delta-qp / no-aq-motion / hdr / hdr-opt / no-dhdr10-opt / analysis-reuse-level=5 / scale-factor=0 / refine-intra=0 / refine-inter=0 / refine-mv=0 / no-limit-sao / ctu-info=0 / no-lowpass-dct / refine-mv-type=0 / copy-pic=1
Language : English
Default : Yes
Forced : No
Color range : Limited
Color primaries : BT.2020
Transfer characteristics : PQ
Matrix coefficients : BT.2020 non-constant
Mastering display color primaries : Display P3
Mastering display luminance : min: 0.0050 cd/m2, max: 4000 cd/m2
Maximum Content Light Level : 1016 cd/m2
Maximum Frame-Average Light Level : 342 cd/m2

Audio #1
ID : 2
Format : AC-3
Format/Info : Audio Coding 3
Codec ID : A_AC3
Duration : 2 h 0 min
Bit rate mode : Constant
Bit rate : 448 kb/s
Channel(s) : 6 channels
Channel positions : Front: L C R, Side: L R, LFE
Sampling rate : 48.0 kHz
Frame rate : 31.250 FPS (1536 SPF)
Bit depth : 16 bits
Compression mode : Lossy
Stream size : 385 MiB (2%)
Title : Justice.League.2017.2160p.UHD.BluRay.x265-SpaceHD13.DUB
Language : Russian
Service kind : Complete Main
Default : Yes
Forced : No

Audio #2
ID : 3
Format : AC-3
Format/Info : Audio Coding 3
Codec ID : A_AC3
Duration : 2 h 0 min
Bit rate mode : Constant
Bit rate : 224 kb/s
Channel(s) : 2 channels
Channel positions : Front: L R
Sampling rate : 48.0 kHz
Frame rate : 31.250 FPS (1536 SPF)
Bit depth : 16 bits
Compression mode : Lossy
Stream size : 192 MiB (1%)
Title : Justice.League.2017.2160p.UHD.BluRay.x265-SpaceHD13.UA
Language : Ukrainian
Service kind : Complete Main
Default : No
Forced : No

Audio #3
ID : 4
Format : TrueHD
Format profile : TrueHD+Atmos / TrueHD
Codec ID : A_TRUEHD
Duration : 2 h 0 min
Bit rate mode : Variable
Bit rate : 3 879 kb/s
Maximum bit rate : 6 366 kb/s
Channel(s) : Object Based / 8 channels
Channel positions : Object Based / Front: L C R, Side: L R, Back: L R, LFE
Sampling rate : / 48.0 kHz
Frame rate : 1 200.000 FPS (40 SPF)
Compression mode : Lossless
Stream size : 3.25 GiB (13%)
Title : Justice.League.2017.2160p.UHD.BluRay.x265-SpaceHD13.Atmos
Language : English
Default : No
Forced : No

Audio #4
ID : 5
Format : AC-3
Format/Info : Audio Coding 3
Codec ID : A_AC3
Duration : 2 h 0 min
Bit rate mode : Constant
Bit rate : 448 kb/s
Channel(s) : 6 channels
Channel positions : Front: L C R, Side: L R, LFE
Sampling rate : 48.0 kHz
Frame rate : 31.250 FPS (1536 SPF)
Bit depth : 16 bits
Compression mode : Lossy
Stream size : 385 MiB (2%)
Title : Justice.League.2017.2160p.UHD.BluRay.x265-SpaceHD13
Language : English
Service kind : Complete Main
Default : No
Forced : No

Text #1
ID : 6
Format : UTF-8
Codec ID : S_TEXT/UTF8
Codec ID/Info : UTF-8 Plain Text
Duration : 1 h 59 min
Bit rate : 42 b/s
Count of elements : 1249
Stream size : 37.0 KiB (0%)
Title : English Regular SRT
Language : English
Default : No
Forced : No

Text #2
ID : 7
Format : UTF-8
Codec ID : S_TEXT/UTF8
Codec ID/Info : UTF-8 Plain Text
Duration : 1 h 59 min
Bit rate : 48 b/s
Count of elements : 1507
Stream size : 42.7 KiB (0%)
Title : English SDH SRT
Language : English
Default : No
Forced : No

Text #3
ID : 8
Format : PGS
Muxing mode : zlib
Codec ID : S_HDMV/PGS
Codec ID/Info : Picture based subtitle format used on BDs/HD-DVDs
Duration : 1 h 57 min
Bit rate : 810 b/s
Count of elements : 48
Stream size : 700 KiB (0%)
Title : Forced
Language : Russian
Default : Yes
Forced : No

Text #4
ID : 9
Format : PGS
Muxing mode : zlib
Codec ID : S_HDMV/PGS
Codec ID/Info : Picture based subtitle format used on BDs/HD-DVDs
Duration : 1 h 58 min
Bit rate : 38.4 kb/s
Count of elements : 2048
Stream size : 32.5 MiB (0%)
Title : full
Language : Russian
Default : No
Forced : No

Text #5
ID : 10
Format : PGS
Muxing mode : zlib
Codec ID : S_HDMV/PGS
Codec ID/Info : Picture based subtitle format used on BDs/HD-DVDs
Duration : 1 h 38 min
Bit rate : 1 109 b/s
Count of elements : 62
Stream size : 801 KiB (0%)
Title : forced
Language : Ukrainian
Default : No
Forced : No

Text #6
ID : 11
Format : PGS
Muxing mode : zlib
Codec ID : S_HDMV/PGS
Codec ID/Info : Picture based subtitle format used on BDs/HD-DVDs
Duration : 1 h 59 min
Bit rate : 29.0 kb/s
Count of elements : 3014
Stream size : 24.7 MiB (0%)
Title : English SUP
Language : English
Default : No
Forced : No

Text #7
ID : 12
Format : PGS
Muxing mode : zlib
Codec ID : S_HDMV/PGS
Codec ID/Info : Picture based subtitle format used on BDs/HD-DVDs
Duration : 1 h 58 min
Bit rate : 17.5 kb/s
Count of elements : 3061
Stream size : 14.8 MiB (0%)
Language : Japanese
Default : No
Forced : No

Text #8
ID : 13
Format : PGS
Muxing mode : zlib
Codec ID : S_HDMV/PGS
Codec ID/Info : Picture based subtitle format used on BDs/HD-DVDs
Duration : 1 h 59 min
Bit rate : 21.0 kb/s
Count of elements : 2498
Stream size : 17.9 MiB (0%)
Language : French
Default : No
Forced : No

Text #9
ID : 14
Format : PGS
Muxing mode : zlib
Codec ID : S_HDMV/PGS
Codec ID/Info : Picture based subtitle format used on BDs/HD-DVDs
Duration : 1 h 59 min
Bit rate : 24.4 kb/s
Count of elements : 2426
Stream size : 20.8 MiB (0%)
Language : Spanish
Default : No
Forced : No

Text #10
ID : 15
Format : PGS
Muxing mode : zlib
Codec ID : S_HDMV/PGS
Codec ID/Info : Picture based subtitle format used on BDs/HD-DVDs
Duration : 1 h 59 min
Bit rate : 23.5 kb/s
Count of elements : 2428
Stream size : 20.0 MiB (0%)
Language : Chinese
Default : No
Forced : No

Text #11
ID : 16
Format : PGS
Muxing mode : zlib
Codec ID : S_HDMV/PGS
Codec ID/Info : Picture based subtitle format used on BDs/HD-DVDs
Duration : 1 h 59 min
Bit rate : 21.3 kb/s
Count of elements : 2504
Stream size : 18.2 MiB (0%)
Language : Chinese
Default : No
Forced : No

Text #12
ID : 17
Format : PGS
Muxing mode : zlib
Codec ID : S_HDMV/PGS
Codec ID/Info : Picture based subtitle format used on BDs/HD-DVDs
Duration : 1 h 59 min
Bit rate : 15.5 kb/s
Count of elements : 2548
Stream size : 13.2 MiB (0%)
Language : Korean
Default : No
Forced : No

Text #13
ID : 18
Format : PGS
Muxing mode : zlib
Codec ID : S_HDMV/PGS
Codec ID/Info : Picture based subtitle format used on BDs/HD-DVDs
Duration : 1 h 59 min
Bit rate : 24.1 kb/s
Count of elements : 2498
Stream size : 20.5 MiB (0%)
Language : Spanish
Default : No
Forced : No

Text #14
ID : 19
Format : PGS
Muxing mode : zlib
Codec ID : S_HDMV/PGS
Codec ID/Info : Picture based subtitle format used on BDs/HD-DVDs
Duration : 1 h 59 min
Bit rate : 24.4 kb/s
Count of elements : 2498
Stream size : 20.7 MiB (0%)
Language : Portuguese
Default : No
Forced : No

Text #15
ID : 20
Format : PGS
Muxing mode : zlib
Codec ID : S_HDMV/PGS
Codec ID/Info : Picture based subtitle format used on BDs/HD-DVDs
Duration : 1 h 59 min
Bit rate : 13.0 kb/s
Count of elements : 2520
Stream size : 11.1 MiB (0%)
Language : Arabic
Default : No
Forced : No

Text #16
ID : 21
Format : PGS
Muxing mode : zlib
Codec ID : S_HDMV/PGS
Codec ID/Info : Picture based subtitle format used on BDs/HD-DVDs
Duration : 1 h 59 min
Bit rate : 22.4 kb/s
Count of elements : 2506
Stream size : 19.1 MiB (0%)
Language : Czech
Default : No
Forced : No

Text #17
ID : 22
Format : PGS
Muxing mode : zlib
Codec ID : S_HDMV/PGS
Codec ID/Info : Picture based subtitle format used on BDs/HD-DVDs
Duration : 1 h 59 min
Bit rate : 23.1 kb/s
Count of elements : 1870
Stream size : 19.7 MiB (0%)
Language : Danish
Default : No
Forced : No

Text #18
ID : 23
Format : PGS
Muxing mode : zlib
Codec ID : S_HDMV/PGS
Codec ID/Info : Picture based subtitle format used on BDs/HD-DVDs
Duration : 1 h 59 min
Bit rate : 23.0 kb/s
Count of elements : 2494
Stream size : 19.6 MiB (0%)
Language : Finnish
Default : No
Forced : No

Text #19
ID : 24
Format : PGS
Muxing mode : zlib
Codec ID : S_HDMV/PGS
Codec ID/Info : Picture based subtitle format used on BDs/HD-DVDs
Duration : 1 h 59 min
Bit rate : 23.0 kb/s
Count of elements : 2304
Stream size : 19.6 MiB (0%)
Language : Norwegian
Default : No
Forced : No

Text #20
ID : 25
Format : PGS
Muxing mode : zlib
Codec ID : S_HDMV/PGS
Codec ID/Info : Picture based subtitle format used on BDs/HD-DVDs
Duration : 1 h 59 min
Bit rate : 25.3 kb/s
Count of elements : 2496
Stream size : 21.6 MiB (0%)
Language : Polish
Default : No
Forced : No

Text #21
ID : 26
Format : PGS
Muxing mode : zlib
Codec ID : S_HDMV/PGS
Codec ID/Info : Picture based subtitle format used on BDs/HD-DVDs
Duration : 1 h 59 min
Bit rate : 22.9 kb/s
Count of elements : 2498
Stream size : 19.5 MiB (0%)
Language : Swedish
Default : No
Forced : No

Menu
00:00:00.000 : en:00:00:00.000
00:10:56.155 : en:00:10:56.155
00:19:16.489 : en:00:19:16.489
00:30:41.673 : en:00:30:41.673
00:40:19.667 : en:00:40:19.667
00:49:56.535 : en:00:49:56.535
01:01:26.892 : en:01:01:26.892
01:09:41.552 : en:01:09:41.552
01:19:18.587 : en:01:19:18.587
01:30:34.512 : en:01:30:34.512
01:40:33.569 : en:01:40:33.569
01:48:43.058 : en:01:48:43.058
pb.wtf



Скачать Лига справедливости через торрент https://d.radikal.ru/d21/1808/b6/2eb0c5edc1cc.png Скачать фильм Лига справедливости через торрент бесплантно в хорошем качестве Описание: Брюс Уэйн, вдохновленный самопожертвованием Супермена, вновь обретает веру в человечество. Он заручается поддержкой новой ... 10 10 5
Info! Золотая раздача, скачанное не засчитывается.
Торрент: Зарегистрирован [2018-08-09 04:18] · скачан: 145 раз
Статус: √ проверено
Размер: 24.94 GB
Как cкачать? Как скачать Лига справедливости через торрент | UTorrent

% Раздел Тема Автор DL S | L
Зарубежные Мультфильмы (BDRip 1080p, 720p, Blu-ray, BD-Remux) [ 6.75 GB ] Темная Лига справедливости: Война Апоколипса / Justice League Dark: Apokolips War [2020 Мультфильм BDRip 1080p] DUB bober100 Скачать
5 | 0
Зарубежные Мультфильмы (BDRip 1080p, 720p, Blu-ray, BD-Remux) [ 11.14 GB ] Темная Лига справедливости: Война Апоколипса / Justice League Dark: Apokolips War [2020 Мультфильм BD Remux 1080p] DUB bober100 Скачать
13 | 2
Зарубежные Мультфильмы (BDRip 1080p, 720p, Blu-ray, BD-Remux) [ 4.55 GB ] Темная Лига справедливости: Война Апоколипса / Justice League Dark: Apokolips War [2020 Мультфильм BDRip 720p] DUB bober100 Скачать
5 | 1
Иностранные мультфильмы [ 1.42 GB ] Темная Лига справедливости: Война Апоколипса / Justice League Dark: Apokolips War [2020 Мультфильм BDRip] bober100 Скачать
16 | 0
Фильмы (HD 720p, 1080p) (48-60 fps) [ 4.68 GB ] Лига справедливости / Justice League [2017 BDRip 720p / 60 FPS ] от R.G. HD-Films slaventi-69 Скачать
3 | 0
Порно фильмы с русским переводом [ 1.2 GB ] Лига Справедливости: Порно Пародия / Justice League XXX: An Axel Braun Parody [2017 Feature WEB-DLRip ] Pir@tya2010 Скачать
5 | 0
T Фильмы (мультфильмы) cо спонсором показа (Новинки AVI/MKV) [ 1.37 GB ] Лига справедливости против Смертоносной пятерки / Justice League vs the Fatal Five [2019 мультфильм WEB-DLRip] MVO ["Синема УС"] bober100 Скачать
1 | 0

28-11-2019 20:33  

Отключить всю рекламу на сайте

    Дорогой пользователь! Огромная просьба, поблагодарите релизера, оцените раздачу и оставьте свои комментарий, если Вы скачали Лига справедливости через торрент бесплатно! Внесите свою лепту в развитие PiratBit!
    Комментировать посты могут только пользователи прошедшие не сложную регистрацию
    Показать сообщения:    

    Лига справедливости через торрент
    Скачать бесплатно Лига справедливости
    Лига справедливости скачать торрент
    Лига справедливости смотреть онлайн
    Cкачать фильм Лига справедливости бесплатно
    Лига справедливости скачать торрент в хорошем качестве
    Лига справедливости смотреть онлайн бесплатно в хорошем качестве


    Вы не можете начинать темы
    Вы не можете отвечать на сообщения
    Вы не можете редактировать свои сообщения
    Вы не можете удалять свои сообщения
    Вы не можете голосовать в опросах
    Вы не можете прикреплять файлы к сообщениям
    Вы можете скачивать файлы