Ссылка на приватное зеркало всего за 1$. Внимание количество ограничено!!!

OK

1+1

iTunes

мы

OK

1

WEB-DLRip

Джокер

Пифагор

Ведьмак / The Witcher сериал

Лицензия

ПШазам

ОК

Оно 2

iTunes

30
pack

Вам бонус

ВАЖНО

!!Акция!!

Alien_RageХит недели

RePack

Resident Evil 21

ИГРА 18+

pack

RePack

jed

RePack

fifa19

RePack

Assassins Creed: Odyssey

RePack

NEED FOR SPEED™ PAYBACK

4 сезон

9 сезон

Бесстыжие 9 сезон

Все сериалы

все сериалы на PB.wtf

RePack

FAR CRY 5
  

Нет хороших героев / No Good Heroes (Джонни Ксено) [2016, Ужасы, фантастика, триллер, драма, комедия, BDRip 720p] MVO ["Синема УС"] pb.wtf

Нет хороших героев через торрент pb.wtf

Размер: 4.31 GB | Добавлен: 1 год 5 мес. назад | Торрент скачан:32 раза
Скачать  

09-08-2018 05:48 Нет хороших героев Скачать торрент  

Нет хороших героев / No Good HeroesГод выпуска: 2016
Страна: США
Жанр: Ужасы, фантастика, триллер, драма, комедия
Продолжительность: 01:35:24
Перевод: Любительский (многоголосый) | "Синема УС"
Субтитры: отсутствуют

Режиссер: Джонни Ксено

rating

В ролях:

Тим О'Лири, Нова Гейвер, Чад Креншоу, Нэйтан Варнсон, Минди Мари Миллер, Шейла Григгс, Роджер Денеша, Кевин Гагнепайн, Чарли Швингер

Описание:

Большая группа мирных пришельцев живет в пещерах возле маленького городка. Когда условия их жизни ужесточаются, они превращается в опасных хищников, борясь за свое существование и предав сострадательного полицейского, который заботился о них в течение 28 лет.

Качество: BDRip 720p
Формат: MKV

Видео: h.264, 6 021 kb/s, 1280x534
Аудио#1: Русский (AC3, 2 ch, 448 Кбит/с)
скриншот  скриншот  скриншот  

Общее
Уникальный идентификатор : 198879167867313938805935231630759484492 (0x959EBC064B6929988736847AF2D4DC4C)
Полное имя : D:\No.Good.Heroes.2018.P.BDRip.72Op_KOSHARA.mkv
Формат : Matroska
Версия формата : Version 2
Размер файла : 4,31 Гбайт
Продолжительность : 1 ч. 35 м.
Режим общего битрейта : Переменный
Общий поток : 6471 Кбит/сек
Дата кодирования : UTC 2018-07-26 13:57:18
Программа кодирования : mkvmerge v8.3.0 ('Over the Horizon') 64bit
Библиотека кодирования : libebml v1.3.1 + libmatroska v1.4.2

Видео
Идентификатор : 1
Формат : AVC
Формат/Информация : Advanced Video Codec
Профиль формата : High@L4.1
Параметр CABAC формата : Да
Параметр RefFrames формата : 4 кадра
Идентификатор кодека : V_MPEG4/ISO/AVC
Продолжительность : 1 ч. 35 м.
Вид битрейта : Переменный
Битрейт : 6021 Кбит/сек
Максимальный битрейт : 6900 Кбит/сек
Ширина : 1280 пикселей
Высота : 534 пикселя
Соотношение сторон : 2,40:1
Режим частоты кадров : Постоянный
Частота кадров : 23,976 (24000/1001) кадра/сек
Стандарт вещания : Component
Цветовое пространство : YUV
Субдискретизация насыщенности : 4:2:0
Битовая глубина : 8 бит
Тип развёртки : Прогрессивная
Бит/(Пиксели*Кадры) : 0.360
Размер потока : 3,93 Гбайт (91%)
Default : Да
Forced : Нет
Цветовой диапазон : Limited
Основные цвета : BT.709
Характеристики трансфера : BT.709
Коэффициенты матрицы : BT.709

Аудио
Идентификатор : 2
Формат : AC-3
Формат/Информация : Audio Coding 3
Расширение режима : CM (complete main)
Параметр Endianness формата : Big
Идентификатор кодека : A_AC3
Продолжительность : 1 ч. 35 м.
Вид битрейта : Постоянный
Битрейт : 448 Кбит/сек
Каналы : 2 канала
Расположение каналов : Front: L R
Частота : 48,0 КГц
Частота кадров : 31,250 кадров/сек (1536 spf)
Метод сжатия : С потерями
Размер потока : 306 Мбайт (7%)
Default : Да
Forced : Нет

pb.wtf



Скачать Нет хороших героев через торрент http://img11.lostpic.net/2018/08/09/cdf5a58a59a0cc193c9d8190878247b5.jpg Скачать фильм Нет хороших героев через торрент бесплантно в хорошем качестве Описание: Большая группа мирных пришельцев живет в пещерах возле маленького городка. Когда условия их жизни ужесточаются, они превращается ... 10 10 4
Торрент: Зарегистрирован [2018-08-09 05:48] · скачан: 32 раз
Статус: # сомнительно
Размер: 4.31 GB
Как cкачать? Как скачать Нет хороших героев через торрент | qTorrent

% Раздел Тема Автор DL S | L
T Фильмы (мультфильмы) cо спонсором показа (Новинки AVI/MKV) [ 1.37 GB ] Нет хороших героев / No Good Heroes [2016 HDRip] MVO ["Синема УС"] bober100 Скачать
1 | 0

28-11-2019 20:33  

Отключить всю рекламу на сайте

    Дорогой пользователь! Огромная просьба, поблагодарите релизера, оцените раздачу и оставьте свои комментарий, если Вы скачали Нет хороших героев через торрент бесплатно! Внесите свою лепту в развитие PiratBit!
    Комментировать посты могут только пользователи прошедшие не сложную регистрацию
    Показать сообщения:    

    Нет хороших героев через торрент
    Скачать бесплатно Нет хороших героев
    Нет хороших героев скачать торрент
    Нет хороших героев смотреть онлайн
    Cкачать фильм Нет хороших героев бесплатно
    Нет хороших героев скачать торрент в хорошем качестве
    Нет хороших героев смотреть онлайн бесплатно в хорошем качестве


    Вы не можете начинать темы
    Вы не можете отвечать на сообщения
    Вы не можете редактировать свои сообщения
    Вы не можете удалять свои сообщения
    Вы не можете голосовать в опросах
    Вы не можете прикреплять файлы к сообщениям
    Вы можете скачивать файлы