2 сезон

iTunes

MVO

1

2 сезон

iTunes

iTunes

1 сезон

RePack

30

Новинка

ВАЖНО

ИГРА 18+

pack

RePack

MK11
pack

Легкие деньги

RePack

jed

RePack

fifa19

RePack

RDR2

RePack

NEED FOR SPEED™ PAYBACK

4 сезон

9 сезон

Бесстыжие 9 сезон

Все сериалы

все сериалы на PB.wtf

RePack

FAR CRY 5

Anonymous, добрый вечер, мы не успеваем собрать деньги на оплату серверов за декабрь и январь, помогите нам пожалуйста в это трудное время. В качестве благодарности мы отключим Вам всю рекламу на сайте (укажите свой ник в строку Ваше имя)!

×
  
Magnet ссылка

Тачки 3 / Cars 3 (Брайан Фи) [2017 г., мультфильм, комедия, приключения, семейный, спорт, BDRip 1080p, HEVC, Дубляж] pb.wtf

Тачки 3 через торрент pb.wtf

Раздают: 2 [ 0 KB/s ]
Размер: 4.26 GB | Добавлен: 2 года 5 мес. назад | Торрент скачан:328 раз
Скачать  

09-08-2018 06:00 Тачки 3 Скачать торрент  

Тачки 3 / Cars 3
Год выпуска: 2017
Страна: США
Жанр: мультфильм, комедия, приключения, семейный, спорт
Продолжительность: 01:42:24
Перевод: Дубляж
Субтитры: Русские (полные)

Режиссер: Брайан Фи

rating

В ролях: Оуэн Уилсон, Кристела Алонзо, Крис Купер, Нэйтан Филлион, Ларри-кабельщик, Арми Хаммер, Рэй Мальоцци, Тони Шэлуб, Бонни Хант, Лиа ДеЛария

Описание: Встречайте самого знаменитого гонщика всех времен, легенду гоночного трека Молнию Маккуина!
Герой все еще продолжает показывать лучшие результаты на всех турнирах, однако победы даются ему не так легко, а конкуренция становится все жестче. Молнию Маккуина ждут захватывающие приключения, где он встретит новых друзей, а также поймет, что не только скорость и мощность мотора делают гонщика чемпионом.
Доп. информация: -
H.265/HEVC (High Efficiency Video Coding) - это новый стандарт кодирования видео.
- Стандарт H.265/HEVC является логическим продолжением стандарта
H.264/AVC (Advanced Video Coding), и характеризуется более эффективными
алгоритмами сжатия, а также поддержкой высокого разрешения вплоть до 8K UHD
(8192x4320). Первая версия стандарта H.265 была опубликована в начале 2013 года.
- Рипы в фомате HEVC поддерживается не всеми аппаратными проигрывателями.
- Для корректного воспроизведения может потребоваться обновление ПО.
- Владельцам несовместимого железа просьба не беспокоить,
есть альтернативные релизы.
Качество: BDRip 1080p
Формат: MKV
Видео кодек: H.265
Аудио кодек: AC3
Видео: 1920x804, 5502 Kbps
Аудио: AC3, 6 ch, 448 Kbps - Русский, Дублированный
Релиз от: Мичман
Общее
Уникальный идентификатор : 236420038153375035077794002604684145271 (0xB1DCD7D4F5FEEF74AE04B7AB4AE2F277)
Полное имя : J:\ФИЛЬМЫ\Тачки - 3. 2017. 1080p. HEVC. (1).mkv
Формат : Matroska
Версия формата : Version 4 / Version 2
Размер файла : 4,26 Гбайт
Продолжительность : 1 ч. 42 м.
Общий поток : 5952 Кбит/сек
Название фильма : Release by ExKinoRay
Дата кодирования : UTC 2017-11-06 16:03:16
Программа кодирования : mkvmerge v12.0.0 ('Trust / Lust') 64bit
Библиотека кодирования : libebml v1.3.4 + libmatroska v1.4.5
Обложка : Yes
Attachments : cover.jpg

Видео
Идентификатор : 1
Формат : HEVC
Формат/Информация : High Efficiency Video Coding
Профиль формата : Main@L4@Main
Идентификатор кодека : V_MPEGH/ISO/HEVC
Продолжительность : 1 ч. 42 м.
Битрейт : 5502 Кбит/сек
Ширина : 1920 пикселей
Высота : 804 пикселя
Соотношение сторон : 2,40:1
Режим частоты кадров : Постоянный
Частота кадров : 23,976 (24000/1001) кадра/сек
Цветовое пространство : YUV
Субдискретизация насыщенности : 4:2:0
Битовая глубина : 8 бит
Бит/(Пиксели*Кадры) : 0.149
Размер потока : 3,94 Гбайт (92%)
Библиотека кодирования : x265 2.5+31-df2de6ea407d:[Windows][GCC 7.1.0][64 bit] 8bit
Настройки программы : cpuid=1105919 / frame-threads=9 / numa-pools=8 / wpp / no-pmode / no-pme / no-psnr / no-ssim / log-level=3 / input-csp=1 / input-res=1920x804 / interlace=0 / total-frames=0 / level-idc=0 / high-tier=1 / uhd-bd=0 / ref=3 / no-allow-non-conformance / no-repeat-headers / annexb / no-aud / no-hrd / info / hash=0 / no-temporal-layers / open-gop / min-keyint=23 / keyint=230 / bframes=4 / b-adapt=2 / b-pyramid / bframe-bias=0 / rc-lookahead=20 / lookahead-slices=5 / scenecut=40 / no-intra-refresh / ctu=64 / min-cu-size=8 / no-rect / no-amp / max-tu-size=32 / tu-inter-depth=1 / tu-intra-depth=1 / limit-tu=0 / rdoq-level=0 / dynamic-rd=0.00 / no-ssim-rd / signhide / no-tskip / nr-intra=0 / nr-inter=0 / no-constrained-intra / strong-intra-smoothing / max-merge=2 / limit-refs=3 / no-limit-modes / me=1 / subme=2 / merange=57 / temporal-mvp / weightp / no-weightb / no-analyze-src-pics / deblock=-2:-2 / sao / no-sao-non-deblock / rd=3 / no-early-skip / rskip / no-fast-intra / no-tskip-fast / no-cu-lossless / no-b-intra / no-splitrd-skip / rdpenalty=0 / psy-rd=2.00 / psy-rdoq=0.00 / no-rd-refine / analysis-reuse-mode=0 / no-lossless / cbqpoffs=0 / crqpoffs=0 / rc=abr / bitrate=5638 / qcomp=0.60 / qpstep=4 / stats-write=0 / stats-read=0 / ipratio=1.40 / pbratio=1.30 / aq-mode=1 / aq-strength=1.00 / cutree / zone-count=0 / no-strict-cbr / qg-size=32 / no-rc-grain / qpmax=69 / qpmin=0 / no-const-vbv / sar=1 / overscan=0 / videoformat=5 / range=0 / colorprim=2 / transfer=2 / colormatrix=2 / chromaloc=0 / display-window=0 / max-cll=0,0 / min-luma=0 / max-luma=255 / log2-max-poc-lsb=8 / vui-timing-info / vui-hrd-info / slices=1 / opt-qp-pps / opt-ref-list-length-pps / no-multi-pass-opt-rps / scenecut-bias=0.05 / no-opt-cu-delta-qp / no-aq-motion / no-hdr / no-hdr-opt / no-dhdr10-opt / analysis-reuse-level=5 / scale-factor=0 / refine-intra=0 / refine-inter=0 / refine-mv=0 / no-limit-sao / ctu-info=0
Язык : English
Default : Да
Forced : Нет

Аудио
Идентификатор : 2
Формат : AC-3
Формат/Информация : Audio Coding 3
Идентификатор кодека : A_AC3
Продолжительность : 1 ч. 42 м.
Вид битрейта : Постоянный
Битрейт : 448 Кбит/сек
Каналы : 6 каналов
Расположение каналов : Front: L C R, Side: L R, LFE
Частота : 48,0 КГц
Частота кадров : 31,250 кадров/сек (1536 SPF)
Битовая глубина : 16 бит
Метод сжатия : С потерями
Размер потока : 328 Мбайт (8%)
Заголовок : iTunes
Язык : Russian
ServiceKind/String : Complete Main
Default : Да
Forced : Нет

Текст
Идентификатор : 3
Формат : UTF-8
Идентификатор кодека : S_TEXT/UTF8
Идентификатор кодека/Информация : UTF-8 Plain Text
Продолжительность : 1 ч. 40 м.
Битрейт : 130 бит/сек
ElementCount : 1420
Размер потока : 96,6 Кбайт (0%)
Заголовок : Full
Язык : Russian
Default : Да
Forced : Нет

Меню
00:00:00.000 : :Champ McQueen
00:04:57.255 : :Storm Front
00:10:54.988 : :Crash
00:13:59.422 : :Wake-up Call
00:18:15.344 : :Phone Call
00:21:07.641 : :Modern Training
00:34:08.880 : :Deal
00:37:52.103 : :Beach
00:42:44.812 : :Crazy Eight
00:49:44.398 : :Cruz's Dream
00:53:57.734 : :Facetime
00:58:17.702 : :Olive Branch
00:59:27.522 : :Smokey
01:02:15.940 : :Hud's Win
01:06:35.533 : :It's Over
01:08:33.109 : :Old School Training
01:15:48.126 : :Florida Arrival
01:20:57.852 : :Pit Stop
01:29:42.418 : :Victory Lane
01:32:17.031 : :Epilogue
01:34:00.092 : :End Credits

pb.wtf



Скачать Тачки 3 через торрент https://d.radikal.ru/d13/1808/69/1aea4b6efed3.jpg Скачать фильм Тачки 3 через торрент бесплантно в хорошем качестве Описание: Встречайте самого знаменитого гонщика всех времен, легенду гоночного трека Молнию Маккуина!Герой все еще продолжает показывать ... 9.9 10 9
Торрент: Зарегистрирован [2018-08-09 06:00] · скачан: 328 раз
Статус: √ проверено
Размер: 4.26 GB
Как cкачать? Как скачать Тачки 3 через торрент | UTorrent

% Раздел Тема Автор DL S | L
3D Мультфильмы [ 5.81 GB ] Тачки 3 в 3D / Cars 3 in 3D [2017 Мультфильм Спорт BDRip 1080p BD CEE] Анаглиф slaventi-69 Скачать
1 | 0
Ultra HD (UHD: 2K, 4K, 8K) [ 36.33 GB ] Тачки 3 / Cars 3 [2017 мультфильм UHD BDRemux 2160p] - [] sheker187 Скачать
1 | 0
Зарубежные Мультфильмы (BDRip 1080p, 720p, Blu-ray, BD-Remux) [ 9.8 GB ] Тачки 3 / Cars 3 [2017 Мультфильм BDRip 1080p] bober100 Скачать
1 | 0
3D Мультфильмы [ 10.08 GB ] Тачки 3 в 3Д / Cars 3 3D [2017 Мультфильм Спорт BDrip 1080p] DUB / OverUnder / Вертикальная стереопара serega768 Скачать
1 | 0
Иностранные мультфильмы [ 2.04 GB ] Тачки 3 / Cars 3 [2017 Мультфильм HDRip "BD EUR"] coc900 Скачать
1 | 0
Зарубежные Мультфильмы (BDRip 1080p, 720p, Blu-ray, BD-Remux) [ 33.32 GB ] Тачки 3 / Cars 3 [2017 Мультфильм Blu-ray 1080p] DUB [] bober100 Скачать
1 | 0
Иностранные мультфильмы [ 1.46 GB ] Тачки 3 / Cars 3 [2017 мультфильм BDRip] - [] Twi7ter Скачать
4 | 0

28-11-2019 20:33  

Отключить всю рекламу на сайте

    Дорогой пользователь! Огромная просьба, поблагодарите релизера, оцените раздачу и оставьте свои комментарий, если Вы скачали Тачки 3 через торрент бесплатно! Внесите свою лепту в развитие PiratBit!
    Комментировать посты могут только пользователи прошедшие не сложную регистрацию
    Показать сообщения:    

    Тачки 3 через торрент
    Скачать бесплатно Тачки 3
    Тачки 3 скачать торрент
    Тачки 3 смотреть онлайн
    Cкачать фильм Тачки 3 бесплатно
    Тачки 3 скачать торрент в хорошем качестве
    Тачки 3 смотреть онлайн бесплатно в хорошем качестве


    Вы не можете начинать темы
    Вы не можете отвечать на сообщения
    Вы не можете редактировать свои сообщения
    Вы не можете удалять свои сообщения
    Вы не можете голосовать в опросах
    Вы не можете прикреплять файлы к сообщениям
    Вы можете скачивать файлы