Ссылка на приватное зеркало всего за 1$. Внимание количество ограничено!!!

OK

1+1

iTunes

мы

OK

1

WEB-DLRip

Джокер

Пифагор

Ведьмак / The Witcher сериал

iTunes

ПШазам

ОК

Оно 2

iTunes

30
pack

Вам бонус

ВАЖНО

!!Акция!!

Alien_RageХит недели

RePack

Resident Evil 21

ИГРА 18+

pack

RePack

jed

RePack

fifa19

RePack

Assassins Creed: Odyssey

RePack

NEED FOR SPEED™ PAYBACK

4 сезон

9 сезон

Бесстыжие 9 сезон

Все сериалы

все сериалы на PB.wtf

RePack

FAR CRY 5
  

Призрак пекинской оперы / Doom Of Humanity (Зефан Чен) [2017, Ужасы, триллер, WEB-DL 720p] MVO ["Синема УС"] pb.wtf

Призрак пекинской оперы через торрент pb.wtf

Размер: 2.9 GB | Добавлен: 1 год 5 мес. назад | Торрент скачан:13 раз
Скачать  

09-08-2018 06:53 Призрак пекинской оперы Скачать торрент  

Призрак пекинской оперы / Doom Of HumanityГод выпуска: 2017
Страна: Китай
Жанр: Ужасы, триллер
Продолжительность: 01:25:26
Перевод: Любительский (многоголосый) | "Синема УС"
Субтитры: китайские (вшитые), английские (вшитые)

Режиссер: Зефан Чен



В ролях:

Пенгуи Жо, Жинронг Ми, Зефан Чен, Лу Лу, Ксин Ченг Сонг

Описание:

В здании пекинской оперы, где некогда произошел трагический случай, начинают пропадать молодые ученики. Но действительно ли их похищает мстящий призрак или всё же это дело рук человека?

Качество: WEB-DL 720p
Формат: MKV

Видео: h.264, 4 475 Кбит/с, 1280x544
Аудио#1: Русский, (AC3, 2 ch, 384 Кбит/с)
скриншот  скриншот  скриншот  

Общее
Уникальный идентификатор : 241395568396928520197216318427837273014 (0xB59B1869A18D9F46A6BB687D4E9093B6)
Полное имя : D:\DOOM OF HUMANITY.2O17.Pk.WEB-DL.72Op.mkv
Формат : Matroska
Версия формата : Version 2
Размер файла : 2,90 Гбайт
Продолжительность : 1 ч. 25 м.
Режим общего битрейта : Переменный
Общий поток : 4861 Кбит/сек
Дата кодирования : UTC 2018-08-04 21:25:57
Программа кодирования : mkvmerge v8.3.0 ('Over the Horizon') 64bit
Библиотека кодирования : libebml v1.3.1 + libmatroska v1.4.2

Видео
Идентификатор : 1
Формат : AVC
Формат/Информация : Advanced Video Codec
Профиль формата : High@L4.1
Параметр CABAC формата : Да
Параметр RefFrames формата : 4 кадра
Идентификатор кодека : V_MPEG4/ISO/AVC
Продолжительность : 1 ч. 25 м.
Вид битрейта : Переменный
Битрейт : 4475 Кбит/сек
Максимальный битрейт : 5000 Кбит/сек
Ширина : 1280 пикселей
Высота : 544 пикселя
Соотношение сторон : 2,35:1
Режим частоты кадров : Постоянный
Частота кадров : 23,976 (24000/1001) кадра/сек
Стандарт вещания : Component
Цветовое пространство : YUV
Субдискретизация насыщенности : 4:2:0
Битовая глубина : 8 бит
Тип развёртки : Прогрессивная
Бит/(Пиксели*Кадры) : 0.262
Размер потока : 2,61 Гбайт (90%)
Default : Да
Forced : Нет
Цветовой диапазон : Limited
Основные цвета : BT.709
Характеристики трансфера : BT.709
Коэффициенты матрицы : BT.709

Аудио
Идентификатор : 2
Формат : AC-3
Формат/Информация : Audio Coding 3
Расширение режима : CM (complete main)
Параметр Endianness формата : Big
Идентификатор кодека : A_AC3
Продолжительность : 1 ч. 25 м.
Вид битрейта : Постоянный
Битрейт : 384 Кбит/сек
Каналы : 2 канала
Расположение каналов : Front: L R
Частота : 48,0 КГц
Частота кадров : 31,250 кадров/сек (1536 spf)
Метод сжатия : С потерями
Размер потока : 235 Мбайт (8%)
Default : Да
Forced : Нет

pb.wtf



Скачать Призрак пекинской оперы через торрент https://c.radikal.ru/c02/1808/69/a3f96b5f0527.jpg Скачать фильм Призрак пекинской оперы через торрент бесплантно в хорошем качестве Описание: В здании пекинской оперы, где некогда произошел трагический случай, начинают пропадать молодые ученики. Но действительно ли их ... 7 10 3
Торрент: Зарегистрирован [2018-08-09 06:53] · скачан: 13 раз
Статус: T временная
Размер: 2.9 GB
Как cкачать? Как скачать Призрак пекинской оперы через торрент | qTorrent

% Раздел Тема Автор DL S | L
T Фильмы (мультфильмы) cо спонсором показа (Новинки AVI/MKV) [ 1.37 GB ] Призрак пекинской оперы / Doom Of Humanity [2017 WEB-DLRip] MVO ["Синема УС"] bober100 Скачать
1 | 0

28-11-2019 20:33  

Отключить всю рекламу на сайте

    Дорогой пользователь! Огромная просьба, поблагодарите релизера, оцените раздачу и оставьте свои комментарий, если Вы скачали Призрак пекинской оперы через торрент бесплатно! Внесите свою лепту в развитие PiratBit!
    Комментировать посты могут только пользователи прошедшие не сложную регистрацию
    Показать сообщения:    

    Призрак пекинской оперы через торрент
    Скачать бесплатно Призрак пекинской оперы
    Призрак пекинской оперы скачать торрент
    Призрак пекинской оперы смотреть онлайн
    Cкачать фильм Призрак пекинской оперы бесплатно
    Призрак пекинской оперы скачать торрент в хорошем качестве
    Призрак пекинской оперы смотреть онлайн бесплатно в хорошем качестве


    Вы не можете начинать темы
    Вы не можете отвечать на сообщения
    Вы не можете редактировать свои сообщения
    Вы не можете удалять свои сообщения
    Вы не можете голосовать в опросах
    Вы не можете прикреплять файлы к сообщениям
    Вы можете скачивать файлы