Ссылка на приватное зеркало всего за 1$. Внимание количество ограничено!!!

OK

1+1

iTunes

мы

OK

1

WEB-DLRip

Джокер

Пифагор

Ведьмак / The Witcher сериал

iTunes

ПШазам

ОК

Оно 2

iTunes

30
pack

Вам бонус

ВАЖНО

!!Акция!!

Alien_RageХит недели

RePack

Resident Evil 21

ИГРА 18+

pack

RePack

jed

RePack

fifa19

RePack

Assassins Creed: Odyssey

RePack

NEED FOR SPEED™ PAYBACK

4 сезон

9 сезон

Бесстыжие 9 сезон

Все сериалы

все сериалы на PB.wtf

RePack

FAR CRY 5
  

Судьба: История Камакуры / Destiny: Kamakura monogatari (Такаси Ямадзаки) [2017, мелодрама, фэнтези, BDRip 720p] MVO [КОЛОБОК] pb.wtf

Судьба: История Камакуры через торрент pb.wtf

Размер: 6.13 GB | Добавлен: 1 год 5 мес. назад | Торрент скачан:56 раз
Скачать  

09-08-2018 07:29 Судьба: История Камакуры Скачать торрент  

Судьба: История Камакуры / Destiny: Kamakura monogatariГод выпуска: 2017
Страна: Япония
Жанр: мелодрама, фэнтези
Продолжительность: 02:11:00
Перевод: Любительский (многоголосый) | КОЛОБОК
Субтитры: отсутствуют

Режиссер: Такаси Ямадзаки

rating

В ролях:

Масато Сакаи, Мицуки Такахата, Синъити Цуцуми, Мин Танака, Дзюн Кунимура, Хироко Якусимару, Томокадзу Миура, Сакура Андо, Тамао Накамура, Арата Фурута

Описание:

Провинциальный городок Камакура - старая столица Японии, где по сей день живы традиции и легенды. Говорят, в местном управлении полиции все еще функционирует отдел по делам лесных духов, а всех диких енотовидных собак в обязательном порядке регистрируют целыми семьями (вдруг среди них есть оборотни тануки). Ещё в Камакуре всегда любили селиться писатели. Оказался среди них и детективщик Иссики. C молодой женой они расследуют преступления и загадки, связанные с призраками, оборотнями и даже инопланетянами.

Качество: BDRip 720p
Формат: MKV

Видео: h.264,6 244 Кбит/с, 1280x536
Аудио#1: Русский (AC3, 2 ch, 448 Кбит/с)
скриншот  скриншот  скриншот  

Общее
Уникальный идентификатор : 215557302553244038823914523300091651514 (0xA22AD38D1B3EB86F8FB2DC9EE303E5BA)
Полное имя : D:\Destiny.The.Tale.of.Kamakura.2017.Pk.BDRip.72Op.mkv
Формат : Matroska
Версия формата : Version 2
Размер файла : 6,13 Гбайт
Продолжительность : 2 ч. 11 м.
Режим общего битрейта : Переменный
Общий поток : 6694 Кбит/сек
Дата кодирования : UTC 2018-08-04 21:23:23
Программа кодирования : mkvmerge v8.3.0 ('Over the Horizon') 64bit
Библиотека кодирования : libebml v1.3.1 + libmatroska v1.4.2

Видео
Идентификатор : 1
Формат : AVC
Формат/Информация : Advanced Video Codec
Профиль формата : High@L4.1
Параметр CABAC формата : Да
Параметр RefFrames формата : 4 кадра
Идентификатор кодека : V_MPEG4/ISO/AVC
Продолжительность : 2 ч. 11 м.
Вид битрейта : Переменный
Битрейт : 6244 Кбит/сек
Максимальный битрейт : 7000 Кбит/сек
Ширина : 1280 пикселей
Высота : 536 пикселей
Соотношение сторон : 2,40:1
Режим частоты кадров : Постоянный
Частота кадров : 23,976 (24000/1001) кадра/сек
Стандарт вещания : Component
Цветовое пространство : YUV
Субдискретизация насыщенности : 4:2:0
Битовая глубина : 8 бит
Тип развёртки : Прогрессивная
Бит/(Пиксели*Кадры) : 0.372
Размер потока : 5,59 Гбайт (91%)
Default : Да
Forced : Нет
Цветовой диапазон : Limited
Основные цвета : BT.709
Характеристики трансфера : BT.709
Коэффициенты матрицы : BT.709

Аудио
Идентификатор : 2
Формат : AC-3
Формат/Информация : Audio Coding 3
Расширение режима : CM (complete main)
Параметр Endianness формата : Big
Идентификатор кодека : A_AC3
Продолжительность : 2 ч. 11 м.
Вид битрейта : Постоянный
Битрейт : 448 Кбит/сек
Каналы : 2 канала
Расположение каналов : Front: L R
Частота : 48,0 КГц
Частота кадров : 31,250 кадров/сек (1536 spf)
Метод сжатия : С потерями
Размер потока : 420 Мбайт (7%)
Default : Да
Forced : Нет

pb.wtf



Скачать Судьба: История Камакуры через торрент http://img11.lostpic.net/2018/08/09/f616331bc2979eeafa86c4b3c9ac79f3.jpg Скачать фильм Судьба: История Камакуры через торрент бесплантно в хорошем качестве Описание: Провинциальный городок Камакура - старая столица Японии, где по сей день живы традиции и легенды. Говорят, в местном управлении ... 10 10 3
Торрент: Зарегистрирован [2018-08-09 07:29] · скачан: 56 раз
Статус: # сомнительно
Размер: 6.13 GB
Как cкачать? Как скачать Судьба: История Камакуры через торрент | qTorrent

% Раздел Тема Автор DL S | L
T Фильмы (мультфильмы) cо спонсором показа (Новинки AVI/MKV) [ 1.37 GB ] Судьба: История Камакуры / Destiny: Kamakura monogatari [2017 HDRip] MVO [КОЛОБОК] bober100 Скачать
1 | 0
T Фильмы (мультфильмы) cо спонсором показа (Новинки AVI/MKV) [ 2.05 GB ] Судьба: История Камакуры / Destiny: Kamakura monogatari [2017 HDRip Любительский ] [КОЛОБОК] Скорпион1976 Скачать
1 | 0

28-11-2019 20:33  

Отключить всю рекламу на сайте

09-08-2018 20:43 Судьба: История Камакуры Скачать торрент  

Редкостная ХРЕнььpb.wtf



12-08-2018 19:01 Судьба: История Камакуры Скачать торрент  

фильм нуднорастянут..можно было сократить раза в три..да и больше для детей.pb.wtf



    Дорогой пользователь! Огромная просьба, поблагодарите релизера, оцените раздачу и оставьте свои комментарий, если Вы скачали Судьба: История Камакуры через торрент бесплатно! Внесите свою лепту в развитие PiratBit!
    Комментировать посты могут только пользователи прошедшие не сложную регистрацию
    Показать сообщения:    

    Судьба: История Камакуры через торрент
    Скачать бесплатно Судьба: История Камакуры
    Судьба: История Камакуры скачать торрент
    Судьба: История Камакуры смотреть онлайн
    Cкачать фильм Судьба: История Камакуры бесплатно
    Судьба: История Камакуры скачать торрент в хорошем качестве
    Судьба: История Камакуры смотреть онлайн бесплатно в хорошем качестве


    Вы не можете начинать темы
    Вы не можете отвечать на сообщения
    Вы не можете редактировать свои сообщения
    Вы не можете удалять свои сообщения
    Вы не можете голосовать в опросах
    Вы не можете прикреплять файлы к сообщениям
    Вы можете скачивать файлы