Ссылка на приватное зеркало нашего сайта всего за 1$. Внимание количество ограничено!!!

2 сезон

iTunes

1 сезон

1

2 сезон

2 сезон

iTunes

1 сезон

RePack

30

Новинка

ВАЖНО

ИГРА 18+

pack

RePack

MK11
pack

Забери бонус

RePack

jed

!!Акция!!

Alien_Rage

RePack

fifa19

RePack

Assassins Creed: Odyssey

RePack

NEED FOR SPEED™ PAYBACK

4 сезон

9 сезон

Бесстыжие 9 сезон

Все сериалы

все сериалы на PB.wtf

RePack

FAR CRY 5
  

Городские легенды: Почти...правдивые истории / Urban Myths: True...ish Stories / Сезон: 1 / Серии 1-5 из 5 (Бен Палмер, Дэн Зефф, Джоффри Сакс) [2017, Биография, комедия., HDTVRip 720p] [MVO] (Good People) pb.wtf

Городские легенды: Почти...правдивые истории через торрент pb.wtf

Размер: 2.18 GB | Добавлен: 2 года 3 мес. назад | Торрент скачан:66 раз
Скачать  

09-08-2018 10:41 Городские легенды: Почти...правдивые истории Скачать торрент  

Городские легенды: Почти... правдивые истории / Urban Myths: True...ish Stories Год выпуска: 2017
Страна: Великобритания
Жанр: Биография, комедия
Продолжительность: 5x~ 00:25:00
Перевод: Профессиональный (многоголосый закадровый) [Good People] *присутствует процент ненормативной лексики*
Субтитры: английские

Режиссёр: Бен Палмер, Дэн Зефф, Джоффри Сакс

В ролях: Бен Чаплин, Эйдан Гиллен, Дэвид Трелфолл, Иван Реон, Руперт Гринт, Эдди Марсан, Стокард Ченнинг, Брайан Кокс, Джозеф Файнс и другие

Описание: Городские легенды бывают разными. Чего только не наслушаешься от местных жителей разных поселений. Порой некоторые истории бывают совершенно безумными и невероятными. Кто бы мог подумать, что в этом новом сериале вас ждет целый сборник невероятных рассказов, которые могут удивить и поразить своей абсурдностью и в то же время уникальностью. Истории могут касаться любых известных личностей, начиная от того же Боба Дилана, заканчивая интереснейшими байками про Элизабет Тейлор, Майкла Джексона и Марлона Брандо. В общем и целом, скучно не будет точно! Остается лишь смотреть и удивляться происходящему на экране.

rating

Качество: HDTVRip 720p
Формат: MKV
Видео кодек: AVC
Аудио кодек: AC3
Видео: AVC, 1280x720 (16:9), 25 fps, ~2004kbps, 0.083 bit/pixel
Аудио 1: Dolby AC3 48000Hz stereo 192 Kbps Русский
Аудио 2: Dolby AC3 48000Hz 6ch 384 Kbps Оригинал
General
Unique ID                      : 204491636702484559972203194920437385968 (0x99D7A81A3A5C5FE6BDC091125FE58AF0)
Complete name                  : Urban.Myths.S01E05.The.Greatest.of.All.Time.720p.HDTVRip.DD2.0.H.264-GoodPeople.mkv
Format                         : Matroska
Format version                 : Version 4 / Version 2
File size                      : 416 MiB
Duration                       : 23 min 23 s
Overall bit rate               : 2 489 kb/s
Encoded date                   : UTC 2018-08-09 00:39:33
Writing application            : mkvmerge v17.0.0 ('Be Ur Friend') 64-bit
Writing library                : libebml v1.3.5 + libmatroska v1.4.8

Video
ID                             : 1
Format                         : AVC
Format/Info                    : Advanced Video Codec
Format profile                 : High@L4.1
Format settings, CABAC         : Yes
Format settings, RefFrames     : 5 frames
Codec ID                       : V_MPEG4/ISO/AVC
Duration                       : 23 min 23 s
Bit rate                       : 1 910 kb/s
Width                          : 1 280 pixels
Height                         : 720 pixels
Display aspect ratio           : 16:9
Frame rate mode                : Constant
Frame rate                     : 25.000 FPS
Color space                    : YUV
Chroma subsampling             : 4:2:0
Bit depth                      : 8 bits
Scan type                      : Progressive
Bits/(Pixel*Frame)             : 0.083
Stream size                    : 320 MiB (77%)
Writing library                : x264 core 148 r2744 b97ae06
Encoding settings              : cabac=1 / ref=5 / deblock=1:0:0 / analyse=0x3:0x113 / me=umh / subme=8 / psy=1 / psy_rd=1.00:0.00 / mixed_ref=1 / me_range=16 / chroma_me=1 / trellis=2 / 8x8dct=1 / cqm=0 / deadzone=21,11 / fast_pskip=1 / chroma_qp_offset=-2 / threads=6 / lookahead_threads=1 / sliced_threads=0 / nr=0 / decimate=1 / interlaced=0 / bluray_compat=0 / constrained_intra=0 / bframes=3 / b_pyramid=2 / b_adapt=1 / b_bias=0 / direct=3 / weightb=1 / open_gop=0 / weightp=2 / keyint=250 / keyint_min=25 / scenecut=40 / intra_refresh=0 / rc_lookahead=50 / rc=crf / mbtree=1 / crf=18.0 / qcomp=0.60 / qpmin=0 / qpmax=69 / qpstep=4 / ip_ratio=1.40 / aq=1:1.00
Language                       : English
Default                        : Yes
Forced                         : No

Audio #1
ID                             : 2
Format                         : AC-3
Format/Info                    : Audio Coding 3
Format settings, Endianness    : Big
Codec ID                       : A_AC3
Duration                       : 23 min 23 s
Bit rate mode                  : Constant
Bit rate                       : 192 kb/s
Channel(s)                     : 2 channels
Channel positions              : Front: L R
Sampling rate                  : 48.0 kHz
Frame rate                     : 31.250 FPS (1536 SPF)
Bit depth                      : 16 bits
Compression mode               : Lossy
Stream size                    : 32.1 MiB (8%)
Language                       : Russian
Service kind                   : Complete Main
Default                        : Yes
Forced                         : No

Audio #2
ID                             : 3
Format                         : AC-3
Format/Info                    : Audio Coding 3
Format settings, Endianness    : Big
Codec ID                       : A_AC3
Duration                       : 23 min 23 s
Bit rate mode                  : Constant
Bit rate                       : 384 kb/s
Channel(s)                     : 2 channels
Channel positions              : Front: L R
Sampling rate                  : 48.0 kHz
Frame rate                     : 31.250 FPS (1536 SPF)
Bit depth                      : 16 bits
Compression mode               : Lossy
Delay relative to video        : 18 ms
Stream size                    : 64.2 MiB (15%)
Service kind                   : Complete Main
Default                        : No
Forced                         : No
скриншот  скриншот  скриншот  
pb.wtf



Скачать Городские легенды: Почти...правдивые истории через торрент http://i99.fastpic.ru/big/2018/0809/02/006d24b090f0ec725d13c7667bf19e02.png Скачать фильм Городские легенды: Почти...правдивые истории через торрент бесплантно в хорошем качестве Описание: Городские легенды бывают разными. Чего только не наслушаешься от местных жителей разных поселений. Порой некоторые истории бывают ... 5 10 1
Торрент: Зарегистрирован [2018-08-09 10:41] · скачан: 66 раз
Статус: √ проверено
Размер: 2.18 GB
Как cкачать? Как скачать Городские легенды: Почти...правдивые истории через торрент | qTorrent

% Раздел Тема Автор DL S | L
Зарубежные сериалы [ 1.43 GB ] Городские легенды: Почти...правдивые истории / Urban Myths: True...ish Stories / Сезон: 1 / Серии 1-5 из 5 [2017 Биография . HDTVRip] [MVO] killermax2013 Скачать
1 | 0

28-11-2019 20:33  

Отключить всю рекламу на сайте

    Дорогой пользователь! Огромная просьба, поблагодарите релизера, оцените раздачу и оставьте свои комментарий, если Вы скачали Городские легенды: Почти...правдивые истории через торрент бесплатно! Внесите свою лепту в развитие PiratBit!
    Комментировать посты могут только пользователи прошедшие не сложную регистрацию
    Показать сообщения:    

    Городские легенды: Почти...правдивые истории через торрент
    Скачать бесплатно Городские легенды: Почти...правдивые истории
    Городские легенды: Почти...правдивые истории скачать торрент
    Городские легенды: Почти...правдивые истории смотреть онлайн
    Cкачать фильм Городские легенды: Почти...правдивые истории бесплатно
    Городские легенды: Почти...правдивые истории скачать торрент в хорошем качестве
    Городские легенды: Почти...правдивые истории смотреть онлайн бесплатно в хорошем качестве


    Вы не можете начинать темы
    Вы не можете отвечать на сообщения
    Вы не можете редактировать свои сообщения
    Вы не можете удалять свои сообщения
    Вы не можете голосовать в опросах
    Вы не можете прикреплять файлы к сообщениям
    Вы можете скачивать файлы