Ссылка на приватное зеркало нашего сайта всего за 1$. Внимание количество ограничено!!!

2 сезон

iTunes

1 сезон

1

2 сезон

2 сезон

iTunes

1 сезон

RePack

30

Ultimate

ВАЖНО

ИГРА 18+

pack

RePack

MK11
pack

Забери бонус

RePack

jed

!!Акция!!

Alien_Rage

RePack

fifa19

RePack

Assassins Creed: Odyssey

RePack

NEED FOR SPEED™ PAYBACK

4 сезон

9 сезон

Бесстыжие 9 сезон

Все сериалы

все сериалы на PB.wtf

RePack

FAR CRY 5
  

Городские легенды: Почти...правдивые истории / Urban Myths: True...ish Stories / Сезон: 1 / Серии 1-5 из 5 (Бен Палмер, Дэн Зефф, Джоффри Сакс) [2017, Биография, комедия., HDTVRip] [MVO] (Good People) pb.wtf

Городские легенды: Почти...правдивые истории через торрент pb.wtf

Размер: 1.43 GB | Добавлен: 2 года 3 мес. назад | Торрент скачан:54 раза
Скачать  

09-08-2018 10:51 Городские легенды: Почти...правдивые истории Скачать торрент  

Городские легенды: Почти... правдивые истории / Urban Myths: True...ish Stories Год выпуска: 2017
Страна: Великобритания
Жанр: Биография, комедия
Продолжительность: 5x~ 00:25:00
Перевод: Профессиональный (многоголосый закадровый) [Good People] *присутствует процент ненормативной лексики*

Режиссёр: Бен Палмер, Дэн Зефф, Джоффри Сакс

В ролях: Бен Чаплин, Эйдан Гиллен, Дэвид Трелфолл, Иван Реон, Руперт Гринт, Эдди Марсан, Стокард Ченнинг, Брайан Кокс, Джозеф Файнс и другие

Описание: Городские легенды бывают разными. Чего только не наслушаешься от местных жителей разных поселений. Порой некоторые истории бывают совершенно безумными и невероятными. Кто бы мог подумать, что в этом новом сериале вас ждет целый сборник невероятных рассказов, которые могут удивить и поразить своей абсурдностью и в то же время уникальностью. Истории могут касаться любых известных личностей, начиная от того же Боба Дилана, заканчивая интереснейшими байками про Элизабет Тейлор, Майкла Джексона и Марлона Брандо. В общем и целом, скучно не будет точно! Остается лишь смотреть и удивляться происходящему на экране.

rating

Качество: HDTVRip
Формат: AVI
Видео: XviD, ~ 1400 kbps, 720x400, 25 fps
Аудио 1: MP3, 48,0 КГц, 2 ch, 128 kbps - RUS
Аудио 2: MP3, 48,0 КГц, 2 ch, 128 kbps - ENG
Субтитры: отсутствуют
Общее
Полное имя                               : G:\Загрузки\Urban.Myths.S01E01.HDTVRip.Rus.Eng.GoodPeople.avi
Формат                                   : AVI
Формат/Информация                        : Audio Video Interleave
Размер файла                             : 281 Мбайт
Продолжительность                        : 22 м. 19 с.
Общий поток                              : 1757 Кбит/сек
Программа кодирования                    : VirtualDubMod 1.5.10.3 | www.virtualdub-fr.org || (build 2550/release)
Библиотека кодирования                   : VirtualDubMod build 2550/release

Видео
Идентификатор                            : 0
Формат                                   : MPEG-4 Visual
Профиль формата                          : Advanced Simple@L5
Настройки формата                        : BVOP1 / Custom Matrix
Параметр BVOP формата                    : 1
Параметр QPel формата                    : Нет
Параметр GMC формата                     : Без точки перехода
Параметр матрицы формата                 : Выборочная
Идентификатор кодека                     : XVID
Идентификатор кодека/Подсказка           : XviD
Продолжительность                        : 22 м. 19 с.
Битрейт                                  : 1487 Кбит/сек
Ширина                                   : 720 пикселей
Высота                                   : 400 пикселей
Соотношение сторон                       : 16:9
Частота кадров                           : 25,000 кадров/сек
Цветовое пространство                    : YUV
Субдискретизация насыщенности            : 4:2:0
Битовая глубина                          : 8 бит
Тип развёртки                            : Прогрессивная
Метод сжатия                             : С потерями
Бит/(Пиксели*Кадры)                      : 0.207
Размер потока                            : 237 Мбайт (85%)
Библиотека кодирования                   : XviD 73

Аудио #1
Идентификатор                            : 1
Формат                                   : MPEG Audio
Версия формата                           : Version 1
Профиль формата                          : Layer 3
Настройки формата                        : Joint stereo / MS Stereo
Идентификатор кодека                     : 55
Идентификатор кодека/Подсказка           : MP3
Продолжительность                        : 22 м. 19 с.
Вид битрейта                             : Постоянный
Битрейт                                  : 128 Кбит/сек
Каналы                                   : 2 канала
Частота                                  : 48,0 КГц
Метод сжатия                             : С потерями
Размер потока                            : 20,4 Мбайт (7%)
Выравнивание                             : Соединение по промежуткам
Продолжительность промежутка             : 40  мс. (1,00 видеокадр)
Время предзагрузки промежутка            : 504  мс.

Аудио #2
Идентификатор                            : 2
Формат                                   : MPEG Audio
Версия формата                           : Version 1
Профиль формата                          : Layer 3
Настройки формата                        : Joint stereo / MS Stereo
Идентификатор кодека                     : 55
Идентификатор кодека/Подсказка           : MP3
Продолжительность                        : 22 м. 19 с.
Вид битрейта                             : Постоянный
Битрейт                                  : 128 Кбит/сек
Каналы                                   : 2 канала
Частота                                  : 48,0 КГц
Метод сжатия                             : С потерями
Размер потока                            : 20,4 Мбайт (7%)
Выравнивание                             : Соединение по промежуткам
Продолжительность промежутка             : 40  мс. (1,00 видеокадр)
Время предзагрузки промежутка            : 504  мс.
скриншот  скриншот  скриншот  
pb.wtf



Скачать Городские легенды: Почти...правдивые истории через торрент http://i99.fastpic.ru/big/2018/0809/02/006d24b090f0ec725d13c7667bf19e02.png Скачать фильм Городские легенды: Почти...правдивые истории через торрент бесплантно в хорошем качестве Описание: Городские легенды бывают разными. Чего только не наслушаешься от местных жителей разных поселений. Порой некоторые истории бывают ... 8.2 10 5
Торрент: Зарегистрирован [2018-08-09 10:51] · скачан: 54 раз
Статус: √ проверено
Размер: 1.43 GB
Как cкачать? Как скачать Городские легенды: Почти...правдивые истории через торрент | qTorrent

% Раздел Тема Автор DL S | L
Зарубежные сериалы [ 2.18 GB ] Городские легенды: Почти...правдивые истории / Urban Myths: True...ish Stories / Сезон: 1 / Серии 1-5 из 5 [2017 Биография . HDTVRip 720p] [MVO] killermax2013 Скачать
2 | 0

28-11-2019 20:33  

Отключить всю рекламу на сайте

    Дорогой пользователь! Огромная просьба, поблагодарите релизера, оцените раздачу и оставьте свои комментарий, если Вы скачали Городские легенды: Почти...правдивые истории через торрент бесплатно! Внесите свою лепту в развитие PiratBit!
    Комментировать посты могут только пользователи прошедшие не сложную регистрацию
    Показать сообщения:    

    Городские легенды: Почти...правдивые истории через торрент
    Скачать бесплатно Городские легенды: Почти...правдивые истории
    Городские легенды: Почти...правдивые истории скачать торрент
    Городские легенды: Почти...правдивые истории смотреть онлайн
    Cкачать фильм Городские легенды: Почти...правдивые истории бесплатно
    Городские легенды: Почти...правдивые истории скачать торрент в хорошем качестве
    Городские легенды: Почти...правдивые истории смотреть онлайн бесплатно в хорошем качестве


    Вы не можете начинать темы
    Вы не можете отвечать на сообщения
    Вы не можете редактировать свои сообщения
    Вы не можете удалять свои сообщения
    Вы не можете голосовать в опросах
    Вы не можете прикреплять файлы к сообщениям
    Вы можете скачивать файлы