Ссылка на приватное зеркало нашего сайта всего за 1$. Внимание количество ограничено!!!

2 сезон

iTunes

1 сезон

1

2 сезон

2 сезон

iTunes

1 сезон

RePack

30

Ultimate

ВАЖНО

ИГРА 18+

pack

RePack

MK11
pack

Забери бонус

RePack

jed

!!Акция!!

Alien_Rage

RePack

fifa19

RePack

Assassins Creed: Odyssey

RePack

NEED FOR SPEED™ PAYBACK

4 сезон

9 сезон

Бесстыжие 9 сезон

Все сериалы

все сериалы на PB.wtf

RePack

FAR CRY 5
  

Морской бой / Battleship (Питер Берг) [2012, фантастика, боевик, триллер, BDRemux 1080p] DUB + 2xAVO pb.wtf

Морской бой через торрент pb.wtf

Размер: 36.78 GB | Добавлен: 2 года 3 мес. назад | Торрент скачан:10 раз
Скачать  

09-08-2018 11:51 Морской бой Скачать торрент  

Морской бой / Battleship«Битва за Землю начнётся на воде»
Год выпуска: 2012
Страна: США
Жанр: фантастика, боевик, триллер, приключения
Продолжительность: 02:11:15
Перевод: Дублированный, авторский
Субтитры: Русские, английские, украинские
Режиссер: Питер Берг
В ролях:

Тейлор Китч (Lieutenant Alex Hopper), Таданобу Асано (Captain Yugi Nagata), Бруклин Декер (Sam), Рианна (Petty Officer Cora «Weps» Raikes), Лиам Нисон (Admiral Shane), Александр Скарсгард (Commander Stone Hopper), Джесси Племонс (Boatswain Mate Seaman Jimmy «Ordy» Ord), Грегори Д. Гэдсон (Lieutenant Colonel Mick Canales), Хамиш Линклэйтер (Cal Zapata), Джон Туи (Chief Petty Officer Walter «The Beast» Lynch), Питер МакНикол (Secretary of Defense), Джерри Феррара (Sampson JOOD Strodell)
Описание:
Мы посылаем сигналы в космос и ждем ответа. Но уверены ли мы, что хотим его получить? Что если пришельцы потенциально опасны? В 2009 году на конференции в Вашингтоне астронавт Эдгар Митчелл, побывавший на Луне, сделал сенсационное заявление о существовании внеземной жизни. Теперь мы знаем, контакт не просто возможен, он неизбежен!
Рейтинг:

MPAA: PG-13 - Детям до 13 лет просмотр не желателен
Качество: BDRemux 1080p
Формат: MKV
Видео: MPEG-4 AVC, 20281 Кбит/с, 1920x1080, 23.976 кадр/с
Аудио 1: Russian, DTS 48kHz 6ch, 768 kbps - Дублированный (Blu-Ray CEE)
Аудио 2: Russian, DTS-HD MA 48kHz 6ch, 4153 kbps - Дублированный [ред. by Sergesha]
Аудио 3: Russian, DTS-HD MA 48kHz 6ch, 3704 kbps - Авторский (Ю.Сербин)
Аудио 4: Russian, AC3 48kHz 6ch, 448 kbps - Авторский (А.Гаврилов)
Аудио 5: English, DTS-HD MA 48kHz 6ch, 4172 kbps - Оригинал
Аудио 6: English, DTS-X 48kHz 8ch, 6704 Кбит/сек - Оригинал
Навигация по главам: есть
Дублированная дорожка DTS-HD Master Audio выполнена из оригинальной DTS-HD Master Audio и дублированной DTS Audio 5.1 дорожек путём замены всех участков с оригинальной речью, отголосками и эхом на аналогичные с дублированной дорожки во всех каналах. Автор сборки - Sergesha.
Format : Matroska
Format version : Version 4 / Version 2
File size : 36.8 GiB
Duration : 2 h 11 min
Overall bit rate mode : Variable
Overall bit rate : 40.1 Mb/s
Movie name : Battleship.2012.2160p.BluRay.REMUX.HEVC.DTS-X.7.1.IVA(4xRUS.UKR.ENG)
Encoded date : UTC 2018-02-12 08:44:46
Writing application : mkvmerge v20.0.0 ('I Am The Sun') 64-bit
Writing library : libebml v1.3.5 + libmatroska v1.4.8
Cover : Yes
Attachments : cover.jpg

Video
ID : 1
Format : AVC
Format/Info : Advanced Video Codec
Format profile : High@L4.1
Format settings, CABAC : Yes
Format settings, ReFrames : 4 frames
Format settings, GOP : M=3, N=12
Codec ID : V_MPEG4/ISO/AVC
Duration : 2 h 11 min
Bit rate mode : Variable
Bit rate : 20.2 Mb/s
Maximum bit rate : 33.0 Mb/s
Width : 1 920 pixels
Height : 1 080 pixels
Display aspect ratio : 16:9
Frame rate mode : Constant
Frame rate : 23.976 (24000/1001) FPS
Color space : YUV
Chroma subsampling : 4:2:0
Bit depth : 8 bits
Scan type : Progressive
Bits/(Pixel*Frame) : 0.405
Stream size : 18.5 GiB (50%)
Title : Battleship.2012.1080p_FHDRemux
Language : English
Default : No
Forced : No

Audio #1
ID : 2
Format : DTS
Format/Info : Digital Theater Systems
Mode : 16
Format settings, Endianness : Big
Codec ID : A_DTS
Duration : 2 h 11 min
Bit rate mode : Constant
Bit rate : 768 kb/s
Channel(s) : 6 channels
Channel positions : Front: L C R, Side: L R, LFE
Sampling rate : 48.0 kHz
Frame rate : 93.750 FPS (512 spf)
Bit depth : 24 bits
Compression mode : Lossy
Stream size : 721 MiB (2%)
Title : Дублированный - Blu-Ray CEE
Language : Russian
Default : No
Forced : No

Audio #2
ID : 3
Format : DTS
Format/Info : Digital Theater Systems
Format profile : MA / Core
Mode : 16
Format settings, Endianness : Big
Codec ID : A_DTS
Duration : 2 h 11 min
Bit rate mode : Variable / Constant
Bit rate : 4 153 kb/s / 1 509 kb/s
Channel(s) : 6 channels
Channel positions : Front: L C R, Side: L R, LFE
Sampling rate : 48.0 kHz
Frame rate : 93.750 FPS (512 spf)
Bit depth : 24 bits
Compression mode : Lossless / Lossy
Stream size : 3.81 GiB (10%)
Title : Дублированный DTS-HD MA [ Sergesha_tfile ]
Language : Russian
Default : Yes
Forced : No

Audio #3
ID : 4
Format : DTS
Format/Info : Digital Theater Systems
Format profile : MA / Core
Mode : 16
Format settings, Endianness : Big
Codec ID : A_DTS
Duration : 2 h 11 min
Bit rate mode : Variable / Constant
Bit rate : 3 704 kb/s / 1 509 kb/s
Channel(s) : 6 channels
Channel positions : Front: L C R, Side: L R, LFE
Sampling rate : 48.0 kHz
Frame rate : 93.750 FPS (512 spf)
Bit depth : 24 bits
Compression mode : Lossless / Lossy
Stream size : 3.40 GiB (9%)
Title : | Одноголосый закадровый, Ю.Сербин |
Language : Russian
Default : No
Forced : No

Audio #4
ID : 5
Format : AC-3
Format/Info : Audio Coding 3
Mode extension : CM (complete main)
Format settings, Endianness : Big
Codec ID : A_AC3
Duration : 2 h 11 min
Bit rate mode : Constant
Bit rate : 448 kb/s
Channel(s) : 6 channels
Channel positions : Front: L C R, Side: L R, LFE
Sampling rate : 48.0 kHz
Frame rate : 31.250 FPS (1536 spf)
Bit depth : 16 bits
Compression mode : Lossy
Stream size : 421 MiB (1%)
Title : | Одноголосый закадровый, А.Гаврилов |
Language : Russian
Default : No
Forced : No

Audio #5
ID : 6
Format : DTS
Format/Info : Digital Theater Systems
Format profile : MA / Core
Mode : 16
Format settings, Endianness : Big
Codec ID : A_DTS
Duration : 2 h 11 min
Bit rate mode : Variable / Constant
Bit rate : 4 172 kb/s / 1 509 kb/s
Channel(s) : 6 channels
Channel positions : Front: L C R, Side: L R, LFE
Sampling rate : 48.0 kHz
Frame rate : 93.750 FPS (512 spf)
Bit depth : 24 bits
Compression mode : Lossless / Lossy
Stream size : 3.83 GiB (10%)
Title : English 6 ch
Language : English
Default : No
Forced : No

Audio #6
ID : 7
Format : DTS
Format/Info : Digital Theater Systems
Format profile : X / MA / Core
Mode : 16
Format settings, Endianness : Big
Codec ID : A_DTS
Duration : 2 h 11 min
Bit rate mode : Variable / Variable / Constant
Bit rate : 6 704 kb/s / 6 704 kb/s / 1 509 kb/s
Channel(s) : Object Based / 8 channels / 6 channels
Channel positions : Object Based / Front: L C R, Side: L R, Back: L R, LFE / Front: L C R, Side: L R, LFE
Sampling rate : / 48.0 kHz / 48.0 kHz
Frame rate : 93.750 FPS (512 spf)
Bit depth : / 24 bits / 24 bits
Compression mode : / Lossless / Lossy
Stream size : 6.15 GiB (17%)
Title : Original 8 ch
Language : English
Default : No
Forced : No

Text #1
ID : 8
Format : UTF-8
Codec ID : S_TEXT/UTF8
Codec ID/Info : UTF-8 Plain Text
Duration : 2 h 10 min
Bit rate : 1 b/s
Count of elements : 33
Stream size : 1.65 KiB (0%)
Title : Forced
Language : Russian
Default : Yes
Forced : Yes

Text #2
ID : 9
Format : UTF-8
Codec ID : S_TEXT/UTF8
Codec ID/Info : UTF-8 Plain Text
Duration : 2 h 9 min
Bit rate : 72 b/s
Count of elements : 1367
Stream size : 69.1 KiB (0%)
Title : Full
Language : Russian
Default : No
Forced : No

Text #3
ID : 10
Format : UTF-8
Codec ID : S_TEXT/UTF8
Codec ID/Info : UTF-8 Plain Text
Duration : 2 h 9 min
Bit rate : 77 b/s
Count of elements : 1117
Stream size : 74.1 KiB (0%)
Title : Voronine
Language : Russian
Default : No
Forced : No

Text #4
ID : 11
Format : UTF-8
Codec ID : S_TEXT/UTF8
Codec ID/Info : UTF-8 Plain Text
Duration : 2 h 8 min
Bit rate : 1 b/s
Count of elements : 33
Stream size : 1.71 KiB (0%)
Title : Forced
Language : Ukrainian
Default : No
Forced : Yes

Text #5
ID : 12
Format : UTF-8
Codec ID : S_TEXT/UTF8
Codec ID/Info : UTF-8 Plain Text
Duration : 2 h 9 min
Bit rate : 74 b/s
Count of elements : 1368
Stream size : 70.7 KiB (0%)
Title : Full
Language : Ukrainian
Default : No
Forced : No

Text #6
ID : 13
Format : UTF-8
Codec ID : S_TEXT/UTF8
Codec ID/Info : UTF-8 Plain Text
Duration : 2 h 9 min
Bit rate : 47 b/s
Count of elements : 1386
Stream size : 44.7 KiB (0%)
Title : Full
Language : English
Default : No
Forced : No

Text #7
ID : 14
Format : UTF-8
Codec ID : S_TEXT/UTF8
Codec ID/Info : UTF-8 Plain Text
Duration : 2 h 9 min
Bit rate : 50 b/s
Count of elements : 1489
Stream size : 47.7 KiB (0%)
Title : SDH
Language : English
Default : No
Forced : No

Text #8
ID : 15
Format : UTF-8
Codec ID : S_TEXT/UTF8
Codec ID/Info : UTF-8 Plain Text
Duration : 2 h 9 min
Bit rate : 58 b/s
Count of elements : 1489
Stream size : 55.7 KiB (0%)
Title : SDH-Colored
Language : English
Default : No
Forced : No

Menu
00:00:00.000 : en:Chapter 1
00:09:24.105 : en:Chapter 2
00:15:04.320 : en:Chapter 3
00:23:08.678 : en:Chapter 4
00:29:44.032 : en:Chapter 5
00:36:26.809 : en:Chapter 6
00:42:01.268 : en:Chapter 7
00:49:09.655 : en:Chapter 8
00:56:08.323 : en:Chapter 9
01:00:02.223 : en:Chapter 10
01:09:50.519 : en:Chapter 11
01:15:26.730 : en:Chapter 12
01:20:56.935 : en:Chapter 13
01:29:47.423 : en:Chapter 14
01:37:14.411 : en:Chapter 15
01:43:32.247 : en:Chapter 16
01:49:38.572 : en:Chapter 17
01:56:20.682 : en:Chapter 18
02:00:41.359 : en:Chapter 19
02:09:33.974 : en:Chapter 20
pb.wtf



Скачать Морской бой через торрент https://c.radikal.ru/c07/1808/b6/60e6c16a708c.png Скачать фильм Морской бой через торрент бесплантно в хорошем качестве Описание: Мы посылаем сигналы в космос и ждем ответа. Но уверены ли мы, что хотим его получить? Что если пришельцы потенциально опасны? В ... 10 10 3
Торрент: Зарегистрирован [2018-08-09 11:51] · скачан: 10 раз
Статус: √ проверено
Размер: 36.78 GB
Как cкачать? Как скачать Морской бой через торрент | qTorrent

% Раздел Тема Автор DL S | L
Ultra HD (UHD: 2K, 4K, 8K) — видео сверхвысокой чёткости [ 72.41 GB ] Морской бой / Battleship [2012 UHD Blu-Ray 2160p] DUB + 2xAVO sheker187 Скачать
1 | 0
Ultra HD (UHD: 2K, 4K, 8K) — видео сверхвысокой чёткости [ 66.19 GB ] Морской бой / Battleship [2012 UHD BDRemux 2160p] 3xAVO+2xDUB bober100 Скачать
2 | 0

28-11-2019 20:33  

Отключить всю рекламу на сайте

    Дорогой пользователь! Огромная просьба, поблагодарите релизера, оцените раздачу и оставьте свои комментарий, если Вы скачали Морской бой через торрент бесплатно! Внесите свою лепту в развитие PiratBit!
    Комментировать посты могут только пользователи прошедшие не сложную регистрацию
    Показать сообщения:    

    Морской бой через торрент
    Скачать бесплатно Морской бой
    Морской бой скачать торрент
    Морской бой смотреть онлайн
    Cкачать фильм Морской бой бесплатно
    Морской бой скачать торрент в хорошем качестве
    Морской бой смотреть онлайн бесплатно в хорошем качестве


    Вы не можете начинать темы
    Вы не можете отвечать на сообщения
    Вы не можете редактировать свои сообщения
    Вы не можете удалять свои сообщения
    Вы не можете голосовать в опросах
    Вы не можете прикреплять файлы к сообщениям
    Вы можете скачивать файлы