2 сезон

iTunes

1 сезон

1

iTunes

iTunes

iTunes

1 сезон

RePack

30

ИГРА 18+

pack

ВАЖНО

!!Акция!!

Alien_RageХит недели

RePack

MK11
pack

Забери бонус

RePack

jed

!!Акция!!

Alien_Rage

RePack

fifa19

RePack

Assassins Creed: Odyssey

RePack

NEED FOR SPEED™ PAYBACK

4 сезон

9 сезон

Бесстыжие 9 сезон

Все сериалы

все сериалы на PB.wtf

RePack

FAR CRY 5
  

Гранд / Сезон: 1 / Серии: 1-21 из 21 (Дмитрий Грибанов) [2018, Комедия, WEB-DLRip] pb.wtf

Гранд через торрент pb.wtf

Размер: 6.22 GB | Добавлен: 2 года назад | Торрент скачан:234 раза
Скачать  

09-08-2018 16:00 Гранд Скачать торрент  

ГрандГод выпуска: 2018
Страна: Россия
Жанр: Комедия
Продолжительность: ~ 00:28:00
Субтитры: отсутствуют

Режиссер: Дмитрий Грибанов



В ролях:

Александр Лыков, Мила Сивацкая, Константин Белошапка, Ольга Филимонова, Григорий Сиятвинда, Екатерина Вилкова, Елена Ксенофонтова, Милош Бикович, Сергей Лавыгин, Михаил Тарабукин, Ольга Кузьмина, Виктор Хориняк, Диана Пожарская

Описание:

Амбициозная и склонная к авантюрам студентка пятого курса Алтайского университета туризма и отдыха Ксения Завгородняя мечтает работать в гостиничном бизнесе и открыть собственный отель. Но навязчивое внимание ректора ставит под угрозу не только планы Ксюши, но и ее дальнейшее обучение в ВУЗе. Девушка находит смелый, но очень скандальный выход из ситуации, после которого ей приходится спасаться бегством из Барнаула. Ксюша отправляется в Москву в надежде устроиться портье в отель, где работает ее родственник.

Качество: WEB-DLRip
Формат: AVI

Видео: XviD, ~ 1650 Кбит/с, 720х400
Аудио: AC3, 2 ch, 192 Кбит/с
скриншот   скриншот   скриншот   скриншот   скриншот   скриншот   скриншот  
скриншот  

Общее
Полное имя : E:\торреннты\Grand.2018.WEB-DLRip.Files-x\01.Grand.2018.WEB-DLRip.Files-x.avi
Формат : AVI
Формат/Информация : Audio Video Interleave
Размер файла : 345 Мбайт
Продолжительность : 28 м. 27 с.
Общий поток : 1696 Кбит/сек
Программа кодирования : VirtualDubMod 1.5.10.3 | www.virtualdub-fr.org || (build 2550/release)
Библиотека кодирования : VirtualDubMod build 2550/release

Видео
Идентификатор : 0
Формат : MPEG-4 Visual
Профиль формата : Advanced Simple@L5
Настройки формата : BVOP1 / Custom Matrix
Параметр BVOP формата : 1
Параметр QPel формата : Нет
Параметр GMC формата : Без точки перехода
Параметр матрицы формата : Выборочная
Идентификатор кодека : XVID
Идентификатор кодека/Подсказка : XviD
Продолжительность : 28 м. 27 с.
Битрейт : 1494 Кбит/сек
Ширина : 720 пикселей
Высота : 400 пикселей
Соотношение сторон : 16:9
Частота кадров : 23,976 (24000/1001) кадра/сек
Цветовое пространство : YUV
Субдискретизация насыщенности : 4:2:0
Битовая глубина : 8 бит
Тип развёртки : Прогрессивная
Метод сжатия : С потерями
Бит/(Пиксели*Кадры) : 0.216
Размер потока : 304 Мбайт (88%)
Библиотека кодирования : XviD 73

Аудио
Идентификатор : 1
Формат : AC-3
Формат/Информация : Audio Coding 3
Идентификатор кодека : 2000
Продолжительность : 28 м. 27 с.
Вид битрейта : Постоянный
Битрейт : 192 Кбит/сек
Каналы : 2 канала
Расположение каналов : Front: L R
Частота : 48,0 КГц
Частота кадров : 31,250 кадров/сек (1536 SPF)
Битовая глубина : 16 бит
Метод сжатия : С потерями
Размер потока : 39,1 Мбайт (11%)
Выравнивание : Разделение по промежуткам
Продолжительность промежутка : 42 мс. (1,00 видеокадр)
Время предзагрузки промежутка : 500 мс.
ServiceKind/String : Complete Main

Внимание! Раздача ведётся путём добавления новых серий; при каждом добавлении создаётся новый торрент. Чтобы начать докачку новой серии, пользователям необходимо сделать следующее:
(1) остановить скачивание,
(2) удалить старый торрент у себя из клиента (старые серии удалять не надо),
(3) скачать новый торрент и запустить его у себя в клиенте вместо старого, при этом указать клиенту путь в старую папку куда и должно происходить скачивание новых серий.
Ваш клиент при этом должен произвести хеширование (проверку) старой папки (если не производит сам - помогите ему сделать это), и будет докачивать только те серии которых у вас ещё нет. Старые серии при этом не удаляются, а продолжают раздаваться!
Eсли вы уже удалили старые серии, то предотвратить повторную закачку старых серий можно, отжав галочку в соответствующих местах при запуске нового торрента. По возможности, желательно не удалять старые серии как можно дольше чтобы релизёр не столько продолжал раздавать старые серии, а смог сконцентрироваться на новых.
pb.wtf



Скачать Гранд через торрент http://i100.fastpic.ru/big/2018/0809/ba/b57b751e8afaf3fa1d81a4e7d02367ba.jpg Скачать фильм Гранд через торрент бесплантно в хорошем качестве Описание: Амбициозная и склонная к авантюрам студентка пятого курса Алтайского университета туризма и отдыха Ксения Завгородняя мечтает ... 10 10 11
Торрент: Зарегистрирован [2018-10-04 18:21] · скачан: 234 раз
Статус: √ проверено
Размер: 6.22 GB
Как cкачать? Как скачать Гранд через торрент | qTorrent

% Раздел Тема Автор DL S | L
Наши сериалы [ 42.47 GB ] Гранд / Сезон: 4 / Серии: 1-9 из 21 [2020 WEBRip 2160p ] bober100 Скачать
1 | 5
Наши сериалы [ 10.04 GB ] Гранд / Сезон: 4 / Серии: 1-9 из 21 [2020 WEBRip 1080p] bober100 Скачать
4 | 9
Наши сериалы [ 2.64 GB ] Гранд / Сезон: 4 / Серии: 1-9 из 21 [2020 WEBRip] bober100 Скачать
8 | 3
Наши сериалы [ 13.16 GB ] Гранд / Сезон: 3 / Серии: 1-21 из 21 [2019 WEBRip 720p] bober100 Скачать
2 | 0
Наши сериалы [ 6.4 GB ] Гранд / Сезон: 3 / Серии: 1-21 из 21 [2019 WEBRip-AVC] bober100 Скачать
2 | 1
Наши сериалы [ 23.6 GB ] Гранд / Сезон: 3 / Серии: 1-21 из 21 [2019 WEBRip 1080p] bober100 Скачать
2 | 0
Наши сериалы [ 6.15 GB ] Гранд / Сезон: 3 / Серии: 1-21 из 21 [2019 WEBRip] bober100 Скачать
1 | 0

28-11-2019 20:33  

Отключить всю рекламу на сайте

    Дорогой пользователь! Огромная просьба, поблагодарите релизера, оцените раздачу и оставьте свои комментарий, если Вы скачали Гранд через торрент бесплатно! Внесите свою лепту в развитие PiratBit!
    Комментировать посты могут только пользователи прошедшие не сложную регистрацию
    Показать сообщения:    

    Гранд через торрент
    Скачать бесплатно Гранд
    Гранд скачать торрент
    Гранд смотреть онлайн
    Cкачать фильм Гранд бесплатно
    Гранд скачать торрент в хорошем качестве
    Гранд смотреть онлайн бесплатно в хорошем качестве


    Вы не можете начинать темы
    Вы не можете отвечать на сообщения
    Вы не можете редактировать свои сообщения
    Вы не можете удалять свои сообщения
    Вы не можете голосовать в опросах
    Вы не можете прикреплять файлы к сообщениям
    Вы можете скачивать файлы