Ссылка на приватное зеркало всего за 1$. Внимание количество ограничено!!!

OK

1+1

iTunes

мы

OK

1

WEB-DLRip

Джокер

Пифагор

Ведьмак / The Witcher сериал

iTunes

ПШазам

ОК

Оно 2

iTunes

30
pack

Вам бонус

ВАЖНО

!!Акция!!

Alien_RageХит недели

RePack

Resident Evil 21

ИГРА 18+

pack

RePack

jed

RePack

fifa19

RePack

Assassins Creed: Odyssey

RePack

NEED FOR SPEED™ PAYBACK

4 сезон

9 сезон

Бесстыжие 9 сезон

Все сериалы

все сериалы на PB.wtf

RePack

FAR CRY 5
  

Мальчики все починят / The Fix It Boys (Майк Дорнбирер) [2017, Семейный, WEB-DL 720p] MVO ["Синема УС"] pb.wtf

Мальчики все починят через торрент pb.wtf

Размер: 2.8 GB | Добавлен: 1 год 5 мес. назад | Торрент скачан:7 раз
Скачать  

09-08-2018 16:49 Мальчики все починят Скачать торрент  

Мальчики все починят / The Fix It BoysГод выпуска: 2017
Страна: США
Жанр: Семейный
Продолжительность: 01:23:29
Перевод: Любительский (многоголосый) | "Синема УС"
Субтитры: отсутствуют

Режиссер: Майк Дорнбирер

rating

В ролях:

Этан Шмитц, Брок Бейкер, Кайли Вон, Джонас Риснер, Габриэль Инман, Риз Дорнбир

Описание:

Бен и Крикет могут отремонтировать почти что угодно, их сумасшедшие выходки - это рассказы о костре. Мальчики в тупике, и пока не узнают, про украденное жемчужное ожерелье которое им нужно. Могут ли они поймать вора и найти жемчужину ?

Качество: WEB-DL 720p
Формат: MKV

Видео: XviD, 4 407 kb/s, 1280x720
Аудио#1: Русский, (AC3, 2 ch, 384 Кбит/с)
скриншот  скриншот  скриншот  

Общее
Уникальный идентификатор : 184715276194465113884106478050759867913 (0x8AF6DE3FCA6757F7A28E64B2A2DAFE09)
Полное имя : D:\The Fix It Boys.2017.P.WEB_DL.72Op_KOSHARA.mkv
Формат : Matroska
Версия формата : Version 2
Размер файла : 2,80 Гбайт
Продолжительность : 1 ч. 23 м.
Режим общего битрейта : Переменный
Общий поток : 4793 Кбит/сек
Дата кодирования : UTC 2018-08-09 13:40:57
Программа кодирования : mkvmerge v8.3.0 ('Over the Horizon') 64bit
Библиотека кодирования : libebml v1.3.1 + libmatroska v1.4.2

Видео
Идентификатор : 1
Формат : AVC
Формат/Информация : Advanced Video Codec
Профиль формата : High@L4.1
Параметр CABAC формата : Да
Параметр RefFrames формата : 4 кадра
Идентификатор кодека : V_MPEG4/ISO/AVC
Продолжительность : 1 ч. 23 м.
Вид битрейта : Переменный
Битрейт : 4407 Кбит/сек
Максимальный битрейт : 5000 Кбит/сек
Ширина : 1280 пикселей
Высота : 720 пикселей
Соотношение сторон : 16:9
Режим частоты кадров : Постоянный
Частота кадров : 23,976 (24000/1001) кадра/сек
Стандарт вещания : Component
Цветовое пространство : YUV
Субдискретизация насыщенности : 4:2:0
Битовая глубина : 8 бит
Тип развёртки : Прогрессивная
Бит/(Пиксели*Кадры) : 0.195
Размер потока : 2,52 Гбайт (90%)
Default : Да
Forced : Нет
Цветовой диапазон : Limited
Основные цвета : BT.709
Характеристики трансфера : BT.709
Коэффициенты матрицы : BT.709

Аудио
Идентификатор : 2
Формат : AC-3
Формат/Информация : Audio Coding 3
Расширение режима : CM (complete main)
Параметр Endianness формата : Big
Идентификатор кодека : A_AC3
Продолжительность : 1 ч. 23 м.
Вид битрейта : Постоянный
Битрейт : 384 Кбит/сек
Каналы : 2 канала
Расположение каналов : Front: L R
Частота : 48,0 КГц
Частота кадров : 31,250 кадров/сек (1536 spf)
Метод сжатия : С потерями
Размер потока : 230 Мбайт (8%)
Default : Да
Forced : Нет

pb.wtf



Скачать Мальчики все починят через торрент http://img11.lostpic.net/2018/08/09/f86c182364fb0cdbd04e8e1393a68b97.jpg Скачать фильм Мальчики все починят через торрент бесплантно в хорошем качестве Описание: Бен и Крикет могут отремонтировать почти что угодно, их сумасшедшие выходки - это рассказы о костре. Мальчики в тупике, и пока не ... 10 10 2
Торрент: Зарегистрирован [2018-08-09 16:49] · скачан: 7 раз
Статус: T временная
Размер: 2.8 GB
Как cкачать? Как скачать Мальчики все починят через торрент | qTorrent

% Раздел Тема Автор DL S | L
T Фильмы (мультфильмы) cо спонсором показа (Новинки AVI/MKV) [ 1.37 GB ] Мальчики все починят / The Fix It Boys [2017 WEB-DLRip] MVO ["Синема УС"] bober100 Скачать
1 | 0

28-11-2019 20:33  

Отключить всю рекламу на сайте

    Дорогой пользователь! Огромная просьба, поблагодарите релизера, оцените раздачу и оставьте свои комментарий, если Вы скачали Мальчики все починят через торрент бесплатно! Внесите свою лепту в развитие PiratBit!
    Комментировать посты могут только пользователи прошедшие не сложную регистрацию
    Показать сообщения:    

    Мальчики все починят через торрент
    Скачать бесплатно Мальчики все починят
    Мальчики все починят скачать торрент
    Мальчики все починят смотреть онлайн
    Cкачать фильм Мальчики все починят бесплатно
    Мальчики все починят скачать торрент в хорошем качестве
    Мальчики все починят смотреть онлайн бесплатно в хорошем качестве


    Вы не можете начинать темы
    Вы не можете отвечать на сообщения
    Вы не можете редактировать свои сообщения
    Вы не можете удалять свои сообщения
    Вы не можете голосовать в опросах
    Вы не можете прикреплять файлы к сообщениям
    Вы можете скачивать файлы