Ссылка на приватное зеркало нашего сайта всего за 1$. Внимание количество ограничено!!!

2 сезон

iTunes

iTunes

1

iTunes

iTunes

iTunes

WEBRip

iTunes

30
pack

Новость дня

ВАЖНО

!!Акция!!

Alien_RageХит недели

RePack

Horizon Zero Dawn

ИГРА 18+

pack

RePack

jed

!!Акция!!

Alien_Rage

RePack

fifa19

RePack

Assassins Creed: Odyssey

RePack

NEED FOR SPEED™ PAYBACK

4 сезон

9 сезон

Бесстыжие 9 сезон

Все сериалы

все сериалы на PB.wtf

RePack

FAR CRY 5
  

Блэкмарк / Blackmark (Эй-Джей Мартинсон) [2017, Триллер, WEB-DL 720p] MVO [AlphaProject] pb.wtf

Блэкмарк через торрент pb.wtf

Размер: 3.28 GB | Добавлен: 2 года 1 мес. назад | Торрент скачан:26 раз
Скачать  

09-08-2018 19:07 Блэкмарк Скачать торрент  

Блэкмарк / BlackmarkГод выпуска: 2017
Страна: США
Жанр: Триллер
Продолжительность: 01:38:08
Перевод: Любительский (многоголосый) | AlphaProject
Субтитры: отсутствуют

Режиссер: Эй-Джей Мартинсон

rating

В ролях:

Кайви Лайман, Джефф Хэтч, Кори Макинтош, Тимоти Оман, Элиот Элиот, Джон Генри Ричардсон, Джон Бридделл, Лана Готье, Дейв Парке, Брэд Поттс, Майк, Огнк, Дэнни Хансен, Кинан Джонстон, Дэвид Света

Описание:

1963 год. Военный промышленный магнат, Артур Блэкмарк, вынужден срочно предпринимать меры, чтобы не допустить международного инцидента, который может привести к мировой войне и к концу света.

Качество: WEB-DL 720p
Формат: MKV

Видео: h.264, 4 401 kb/s, 1280x544
Аудио#1: Русский, (AC3, 2 ch, 384 Кбит/с)
скриншот  скриншот  скриншот  

Общее
Уникальный идентификатор : 201034668799766765436088358675260173047 (0x973DDE6CF68A1D2B895193456C24EAF7)
Полное имя : D:\Blackmark.2017.Pa.WEB-DL.72Op_KOSHARA.mkv
Формат : Matroska
Версия формата : Version 2
Размер файла : 3,28 Гбайт
Продолжительность : 1 ч. 38 м.
Режим общего битрейта : Переменный
Общий поток : 4787 Кбит/сек
Дата кодирования : UTC 2018-08-09 12:19:36
Программа кодирования : mkvmerge v8.3.0 ('Over the Horizon') 64bit
Библиотека кодирования : libebml v1.3.1 + libmatroska v1.4.2

Видео
Идентификатор : 1
Формат : AVC
Формат/Информация : Advanced Video Codec
Профиль формата : High@L4.1
Параметр CABAC формата : Да
Параметр RefFrames формата : 4 кадра
Идентификатор кодека : V_MPEG4/ISO/AVC
Продолжительность : 1 ч. 38 м.
Вид битрейта : Переменный
Битрейт : 4401 Кбит/сек
Максимальный битрейт : 5000 Кбит/сек
Ширина : 1280 пикселей
Высота : 544 пикселя
Соотношение сторон : 2,35:1
Режим частоты кадров : Постоянный
Частота кадров : 23,976 (24000/1001) кадра/сек
Стандарт вещания : Component
Цветовое пространство : YUV
Субдискретизация насыщенности : 4:2:0
Битовая глубина : 8 бит
Тип развёртки : Прогрессивная
Бит/(Пиксели*Кадры) : 0.258
Размер потока : 2,95 Гбайт (90%)
Default : Да
Forced : Нет
Цветовой диапазон : Limited
Основные цвета : BT.709
Характеристики трансфера : BT.709
Коэффициенты матрицы : BT.709

Аудио
Идентификатор : 2
Формат : AC-3
Формат/Информация : Audio Coding 3
Расширение режима : CM (complete main)
Параметр Endianness формата : Big
Идентификатор кодека : A_AC3
Продолжительность : 1 ч. 38 м.
Вид битрейта : Постоянный
Битрейт : 384 Кбит/сек
Каналы : 2 канала
Расположение каналов : Front: L R
Частота : 48,0 КГц
Частота кадров : 31,250 кадров/сек (1536 spf)
Метод сжатия : С потерями
Размер потока : 270 Мбайт (8%)
Default : Да
Forced : Нет

pb.wtf



Скачать Блэкмарк через торрент http://img11.lostpic.net/2018/08/09/ca177fe3d15500f969a855ddcb7c1da7.jpg Скачать фильм Блэкмарк через торрент бесплантно в хорошем качестве Описание: 1963 год. Военный промышленный магнат, Артур Блэкмарк, вынужден срочно предпринимать меры, чтобы не допустить международного ... 10 10 4
Торрент: Зарегистрирован [2018-08-09 19:07] · скачан: 26 раз
Статус: T временная
Размер: 3.28 GB
Как cкачать? Как скачать Блэкмарк через торрент | qTorrent

% Раздел Тема Автор DL S | L
T Фильмы (мультфильмы) cо спонсором показа (Новинки AVI/MKV) [ 1.36 GB ] Блэкмарк / Blackmark [2017 WEB-DLRip] MVO [AlphaProject] bober100 Скачать
1 | 0

28-11-2019 20:33  

Отключить всю рекламу на сайте

    Дорогой пользователь! Огромная просьба, поблагодарите релизера, оцените раздачу и оставьте свои комментарий, если Вы скачали Блэкмарк через торрент бесплатно! Внесите свою лепту в развитие PiratBit!
    Комментировать посты могут только пользователи прошедшие не сложную регистрацию
    Показать сообщения:    

    Блэкмарк через торрент
    Скачать бесплатно Блэкмарк
    Блэкмарк скачать торрент
    Блэкмарк смотреть онлайн
    Cкачать фильм Блэкмарк бесплатно
    Блэкмарк скачать торрент в хорошем качестве
    Блэкмарк смотреть онлайн бесплатно в хорошем качестве


    Вы не можете начинать темы
    Вы не можете отвечать на сообщения
    Вы не можете редактировать свои сообщения
    Вы не можете удалять свои сообщения
    Вы не можете голосовать в опросах
    Вы не можете прикреплять файлы к сообщениям
    Вы можете скачивать файлы