Ссылка на приватное зеркало нашего сайта всего за 1$. Внимание количество ограничено!!!

2 сезон

iTunes

1 сезон

1

2 сезон

2 сезон

iTunes

1 сезон

RePack

30

Ultimate

ВАЖНО

ИГРА 18+

pack

RePack

MK11
pack

Забери бонус

RePack

jed

!!Акция!!

Alien_Rage

RePack

fifa19

RePack

Assassins Creed: Odyssey

RePack

NEED FOR SPEED™ PAYBACK

4 сезон

9 сезон

Бесстыжие 9 сезон

Все сериалы

все сериалы на PB.wtf

RePack

FAR CRY 5
  

Лучше звоните Солу / Better Call Saul / Сезон: 4 / Серии: 1-10 из 10 (Винс Гиллиган) [2018, драма, криминал, WEBRip 1080p] MVO [Lostfilm] pb.wtf

Лучше звоните Солу через торрент pb.wtf

Размер: 27.94 GB | Добавлен: 2 года 1 мес. назад | Торрент скачан:31 раз
Скачать  

10-08-2018 01:57 Лучше звоните Солу Скачать торрент  

Лучше звоните Солу / Better Call Saul
«Make the call»
Производство: США
Год выпуска: 2018
Жанр: драма, криминал
Продолжительность: ~ 00:48:00 серия
Перевод: Профессиональный (многоголосый закадровый) | Lostfilm
Субтитры: Русские (Full |«Netflix»|, отдельно), английские (Forced, Full, SDH)

Режиссер: Винс Гиллиган, Томас Шнауз, Адам Бернштейн

В ролях:

Боб Оденкёрк, Ри Сихорн, Джонатан Бэнкс, Патрик Фабиан, Майкл МакКин, Майкл Мэндо, Ген Н. Чавес, Алан Хамфри, Джил Мюррэй, Брайан Барела

Описание:

Эксцентричный адвокат Сол Гудман за шесть лет до появления в сериале «Во все тяжкие» пытается открыть свою собственную контору в Альбукерке. Он делает всё что угодно, чтобы дело не доходило до суда. Он будет решать вопросы прямо на ступеньках здания суда, чего бы ему это ни стоило, только вне зала суда. Это потом он прославится тем, что всячески помогал и ограждал от тюрьмы известного наркоторговца Уолтера Уайта. А пока Гудман никому не известный адвокат, который за копейки защищает мелких преступников и постоянно попадает в неприятности и курьёзные ситуации.



Качество: WEBRip 1080p | чистый видеоряд |
Формат: MKV

Видео: AVC, 1920x1080 (16:9), 23.976 fps, ~ 9500 Kbps
Аудио#1: AC3, 48,0 kHz, 6 ch, 640 kbps | LostFilm
Аудио#2: AC3, 48,0 kHz, 6 ch, 640 kbps | Original
скриншот  скриншот  скриншот  скриншот  

Общее
Уникальный идентификатор : 232307215451958209710283234210260276040 (0xAEC4BE045536F7BCBFA0C49770C55348)
Полное имя : D:\Better_Call_Saul_(s04)_LostFilm_1080p\Better.Call.Saul.s04e01.WEBRip.1080p.mkv
Формат : Matroska
Версия формата : Version 2
Размер файла : 3,71 Гбайт
Продолжительность : 48 м. 31 с.
Общий поток : 11,0 Мбит/сек
Дата кодирования : UTC 2018-08-10 05:15:08
Программа кодирования : mkvmerge v4.9.1 ('Ich will') сборка от Jul 11 2011 23:53:15
Библиотека кодирования : libebml v1.2.1 + libmatroska v1.1.1

Видео
Идентификатор : 1
Формат : AVC
Формат/Информация : Advanced Video Codec
Профиль формата : High@L4.1
Настройки формата : CABAC / 4 Ref Frames
Параметр CABAC формата : Да
Параметр RefFrames формата : 4 кадра
Идентификатор кодека : V_MPEG4/ISO/AVC
Продолжительность : 48 м. 31 с.
Битрейт : 9459 Кбит/сек
Ширина : 1920 пикселей
Высота : 1080 пикселей
Соотношение сторон : 16:9
Режим частоты кадров : Постоянный
Частота кадров : 23,976 (24000/1001) кадра/сек
Цветовое пространство : YUV
Субдискретизация насыщенности : 4:2:0
Битовая глубина : 8 бит
Тип развёртки : Прогрессивная
Бит/(Пиксели*Кадры) : 0.190
Размер потока : 3,21 Гбайт (86%)
Библиотека кодирования : x264 core 148 r2744 b97ae06
Настройки программы : cabac=1 / ref=4 / deblock=1:-3:-3 / analyse=0x3:0x133 / me=umh / subme=10 / psy=1 / psy_rd=1.00:0.00 / mixed_ref=1 / me_range=48 / chroma_me=1 / trellis=2 / 8x8dct=1 / cqm=0 / deadzone=21,11 / fast_pskip=0 / chroma_qp_offset=-2 / threads=24 / lookahead_threads=4 / sliced_threads=0 / nr=0 / decimate=0 / interlaced=0 / bluray_compat=0 / constrained_intra=0 / bframes=9 / b_pyramid=0 / b_adapt=2 / b_bias=0 / direct=3 / weightb=1 / open_gop=0 / weightp=2 / keyint=240 / keyint_min=23 / scenecut=40 / intra_refresh=0 / rc_lookahead=60 / rc=crf / mbtree=0 / crf=18.0 / qcomp=0.60 / qpmin=10 / qpmax=51 / qpstep=4 / vbv_maxrate=62500 / vbv_bufsize=78125 / crf_max=0.0 / nal_hrd=none / filler=0 / ip_ratio=1.40 / pb_ratio=1.30 / aq=3:0.70
Default : Да
Forced : Нет

Аудио #1
Идентификатор : 2
Формат : AC-3
Формат/Информация : Audio Coding 3
Параметр Endianness формата : Big
Идентификатор кодека : A_AC3
Продолжительность : 48 м. 31 с.
Вид битрейта : Постоянный
Битрейт : 640 Кбит/сек
Каналы : 6 каналов
Расположение каналов : Front: L C R, Side: L R, LFE
Частота : 48,0 КГц
Частота кадров : 31,250 кадров/сек (1536 SPF)
Битовая глубина : 16 бит
Метод сжатия : С потерями
Размер потока : 222 Мбайт (6%)
Заголовок : LostFilm
Язык : Russian
ServiceKind/String : Complete Main
Default : Да
Forced : Нет

Аудио #2
Идентификатор : 3
Формат : AC-3
Формат/Информация : Audio Coding 3
Параметр Endianness формата : Big
Идентификатор кодека : A_AC3
Продолжительность : 48 м. 31 с.
Вид битрейта : Постоянный
Битрейт : 640 Кбит/сек
Каналы : 6 каналов
Расположение каналов : Front: L C R, Side: L R, LFE
Частота : 48,0 КГц
Частота кадров : 31,250 кадров/сек (1536 SPF)
Битовая глубина : 16 бит
Метод сжатия : С потерями
Размер потока : 222 Мбайт (6%)
Язык : English
ServiceKind/String : Complete Main
Default : Нет
Forced : Нет

Текст #1
Идентификатор : 4
Формат : UTF-8
Идентификатор кодека : S_TEXT/UTF8
Идентификатор кодека/Информация : UTF-8 Plain Text
Заголовок : Forced
Язык : English
Default : Нет
Forced : Нет

Текст #2
Идентификатор : 5
Формат : UTF-8
Идентификатор кодека : S_TEXT/UTF8
Идентификатор кодека/Информация : UTF-8 Plain Text
Заголовок : Full
Язык : English
Default : Нет
Forced : Нет

Текст #3
Идентификатор : 6
Формат : UTF-8
Идентификатор кодека : S_TEXT/UTF8
Идентификатор кодека/Информация : UTF-8 Plain Text
Заголовок : SDH
Язык : English
Default : Нет
Forced : Нет

Раздача ведётся путём добавления новых серий; при каждом добавлении создаётся новый торрент.
Чтобы начать докачку новой серии, пользователям необходимо сделать следующее:
1. остановить скачивание,
2. удалить старый торрент у себя из клиента (старые серии удалять не надо),
3. скачать новый торрент и запустить его у себя в клиенте вместо старого, при этом указать клиенту путь в старую папку, куда и должно происходить скачивание новых серий.

Ваш клиент при этом должен произвести хеширование (проверку) старой папки (если не производит сам - помогите ему сделать это), и будет докачивать только те серии которых у вас ещё нет. Старые серии при этом не удаляются, а продолжают раздаваться!

Eсли вы уже удалили старые серии, то предотвратить повторную закачку старых серий можно, отжав галочку в соответствующих местах при запуске нового торрента. По возможности, желательно не удалять старые серии как можно дольше, чтобы релизёр не столько продолжал раздавать старые серии, а смог сконцентрироваться на новых.

Совет для тех, кто не хочет ждать перехеширования:
Создайте ещё одну папку рядом с папкой сериала (рядом, а не в ней!!!). Каждую новую серию после удачной загрузки копируйте в новую папку так чтобы ваша основная папка всегда была пуста. Когда ваш новый торрент предложит вам закачать все файлы, выберете только последнюю. Для сидирования же укажите адрес новой папки.

Как закачать отдельный файл из торрента или докачать ранее пропущенные файлы торрента!
pb.wtf



Скачать Лучше звоните Солу через торрент https://d.radikal.ru/d11/1808/45/ca4517a0bdfd.png Скачать фильм Лучше звоните Солу через торрент бесплантно в хорошем качестве Описание:Эксцентричный адвокат Сол Гудман за шесть лет до появления в сериале «Во все тяжкие» пытается открыть свою собственную контору в ... 8.8 10 6
Торрент: Зарегистрирован [2018-10-12 13:39] · скачан: 31 раз
Статус: √ проверено
Размер: 27.94 GB
Как cкачать? Как скачать Лучше звоните Солу через торрент | qTorrent

% Раздел Тема Автор DL S | L
Зарубежные сериалы [ 8.47 GB ] Лучше звоните Солу / Better call Saul / Сезон: 4 / Серии 1-10 из 10 [2018 WEBRip 1080p HEVC двухголосый Кубик в Кубе] aksaleale Скачать
1 | 1
Зарубежные сериалы [ 5.97 GB ] Лучше звоните Солу / Better Call Saul / Сезон: 4 / Серии: 1-10 из 10 [2018 WEB-DLRip] MVO [NewStudio] bober100 Скачать
2 | 0
Зарубежные сериалы [ 14.08 GB ] Лучше звоните Солу / Better Call Saul / Сезон: 4 / Серии: 1-10 из 10 [2018 WEBRip 720p] [MVO] killermax2013 Скачать
1 | 0
Зарубежные сериалы [ 28.53 GB ] Лучше звоните Солу / Better Call Saul / Сезон: 4 / Серии: 1-10 из 10 [2018 WEBRip 1080p] [MVO] killermax2013 Скачать
1 | 0
Зарубежные сериалы [ 5.8 GB ] Лучше звоните Солу / Better Call Saul / Сезон: 4 / Серии: 1-10 из 10 [2018 WEBRip] [MVO] killermax2013 Скачать
1 | 0
Зарубежные сериалы [ 15.45 GB ] Лучше звоните Солу / Better Call Saul / Сезон: 4 / Серии: 1-10 из 10 [2018 WEBRip 720p] MVO [Lostfilm] bober100 Скачать
1 | 0
Зарубежные сериалы [ 25.17 GB ] Лучше звоните Солу / Better Call Saul / Сезон: 4 / Серии: 1-10 из 10 [2018 WEBRip 1080p] MVO [Baibako] bober100 Скачать
1 | 1

28-11-2019 20:33  

Отключить всю рекламу на сайте

    Дорогой пользователь! Огромная просьба, поблагодарите релизера, оцените раздачу и оставьте свои комментарий, если Вы скачали Лучше звоните Солу через торрент бесплатно! Внесите свою лепту в развитие PiratBit!
    Комментировать посты могут только пользователи прошедшие не сложную регистрацию
    Показать сообщения:    

    Лучше звоните Солу через торрент
    Скачать бесплатно Лучше звоните Солу
    Лучше звоните Солу скачать торрент
    Лучше звоните Солу смотреть онлайн
    Cкачать фильм Лучше звоните Солу бесплатно
    Лучше звоните Солу скачать торрент в хорошем качестве
    Лучше звоните Солу смотреть онлайн бесплатно в хорошем качестве


    Вы не можете начинать темы
    Вы не можете отвечать на сообщения
    Вы не можете редактировать свои сообщения
    Вы не можете удалять свои сообщения
    Вы не можете голосовать в опросах
    Вы не можете прикреплять файлы к сообщениям
    Вы можете скачивать файлы