Ссылка на приватное зеркало нашего сайта всего за 1$. Внимание количество ограничено!!!

2 сезон

iTunes

1 сезон

1

2 сезон

2 сезон

iTunes

1 сезон

RePack

30

Ultimate

ВАЖНО

ИГРА 18+

pack

RePack

MK11
pack

Забери бонус

RePack

jed

!!Акция!!

Alien_Rage

RePack

fifa19

RePack

Assassins Creed: Odyssey

RePack

NEED FOR SPEED™ PAYBACK

4 сезон

9 сезон

Бесстыжие 9 сезон

Все сериалы

все сериалы на PB.wtf

RePack

FAR CRY 5
  

Лучше звоните Солу / Better Call Saul / Сезон: 4 / Серии: 1-10 из 10 (Винс Гиллиган) [2018, драма, криминал, WEBRip 720p] DVO [Кубик в Кубе] pb.wtf

Лучше звоните Солу через торрент pb.wtf

Размер: 15.19 GB | Добавлен: 2 года 1 мес. назад | Торрент скачан:27 раз
Скачать  

10-08-2018 04:39 Лучше звоните Солу Скачать торрент  

Лучше звоните Солу / Better Call Saul
«Make the call»
Производство: США
Год выпуска: 2018
Жанр: драма, криминал
Продолжительность: ~ 00:48:00 серия
Перевод: Профессиональный (двухголосый закадровый) | Кубик в Кубе
Субтитры: английские

Режиссер: Винс Гиллиган, Томас Шнауз, Адам Бернштейн

В ролях:

Боб Оденкёрк, Ри Сихорн, Джонатан Бэнкс, Патрик Фабиан, Майкл МакКин, Майкл Мэндо, Ген Н. Чавес, Алан Хамфри, Джил Мюррэй, Брайан Барела

Описание:

Эксцентричный адвокат Сол Гудман за шесть лет до появления в сериале «Во все тяжкие» пытается открыть свою собственную контору в Альбукерке. Он делает всё что угодно, чтобы дело не доходило до суда. Он будет решать вопросы прямо на ступеньках здания суда, чего бы ему это ни стоило, только вне зала суда. Это потом он прославится тем, что всячески помогал и ограждал от тюрьмы известного наркоторговца Уолтера Уайта. А пока Гудман никому не известный адвокат, который за копейки защищает мелких преступников и постоянно попадает в неприятности и курьёзные ситуации.



Качество: WEBRip 720p
Формат: MKV

Видео: MPEG-4 AVC, ~ 4200 Кбит/с, 1280x720
Аудио#1: Русский (AC3, 6 ch, 640 Кбит/с)
Аудио#2: английский (AC3, 6 ch, 640 Кбит/с)
скриншот  скриншот  скриншот  

Общее
Уникальный идентификатор : 223031224514086150610513133309344707057 (0xA7CA405A9A8D9FCB89724247E5F171F1)
Полное имя : D:\Better.Call.Saul.S04.720p.WEB.CasStudio.TV\Better.Call.Saul.S04E01.Smoke.720p.WEBRip.KvK.CasStudio.TV.mkv
Формат : Matroska
Версия формата : Version 4 / Version 2
Размер файла : 1,87 Гбайт
Продолжительность : 48 м. 31 с.
Общий поток : 5504 Кбит/сек
Дата кодирования : UTC 2018-08-10 00:07:56
Программа кодирования : mkvmerge v6.7.0 ('Back to the Ground') 64bit built on Jan 8 2014 15:10:52
Библиотека кодирования : libebml v1.3.0 + libmatroska v1.4.1

Видео
Идентификатор : 1
Формат : AVC
Формат/Информация : Advanced Video Codec
Профиль формата : High@L4.1
Параметр CABAC формата : Да
Параметр RefFrames формата : 9 кадров
Идентификатор кодека : V_MPEG4/ISO/AVC
Продолжительность : 48 м. 31 с.
Битрейт : 4114 Кбит/сек
Ширина : 1280 пикселей
Высота : 720 пикселей
Соотношение сторон : 16:9
Режим частоты кадров : Постоянный
Частота кадров : 23,976 (24000/1001) кадра/сек
Цветовое пространство : YUV
Субдискретизация насыщенности : 4:2:0
Битовая глубина : 8 бит
Тип развёртки : Прогрессивная
Бит/(Пиксели*Кадры) : 0.186
Размер потока : 1,39 Гбайт (75%)
Библиотека кодирования : x264 core 148 r2744 b97ae06
Настройки программы : cabac=1 / ref=9 / deblock=1:-3:-3 / analyse=0x3:0x133 / me=umh / subme=10 / psy=1 / psy_rd=1.00:0.00 / mixed_ref=1 / me_range=48 / chroma_me=1 / trellis=2 / 8x8dct=1 / cqm=0 / deadzone=21,11 / fast_pskip=0 / chroma_qp_offset=-2 / threads=12 / lookahead_threads=2 / sliced_threads=0 / nr=0 / decimate=0 / interlaced=0 / bluray_compat=0 / constrained_intra=0 / bframes=9 / b_pyramid=0 / b_adapt=2 / b_bias=0 / direct=3 / weightb=1 / open_gop=0 / weightp=2 / keyint=240 / keyint_min=23 / scenecut=40 / intra_refresh=0 / rc_lookahead=60 / rc=crf / mbtree=0 / crf=17.0 / qcomp=0.60 / qpmin=10 / qpmax=51 / qpstep=4 / vbv_maxrate=62500 / vbv_bufsize=78125 / crf_max=0.0 / nal_hrd=none / filler=0 / ip_ratio=1.40 / pb_ratio=1.30 / aq=3:0.70
Default : Да
Forced : Нет

Аудио #1
Идентификатор : 2
Формат : AC-3
Формат/Информация : Audio Coding 3
Расширение режима : CM (complete main)
Параметр Endianness формата : Big
Идентификатор кодека : A_AC3
Продолжительность : 48 м. 31 с.
Вид битрейта : Постоянный
Битрейт : 640 Кбит/сек
Каналы : 6 каналов
Расположение каналов : Front: L C R, Side: L R, LFE
Частота : 48,0 КГц
Частота кадров : 31,250 кадров/сек (1536 spf)
Метод сжатия : С потерями
Размер потока : 222 Мбайт (12%)
Заголовок : KvK DD5.1 @ 640kbps
Язык : Russian
Default : Да
Forced : Нет

Аудио #2
Идентификатор : 3
Формат : AC-3
Формат/Информация : Audio Coding 3
Расширение режима : CM (complete main)
Параметр Endianness формата : Big
Идентификатор кодека : A_AC3
Продолжительность : 48 м. 31 с.
Вид битрейта : Постоянный
Битрейт : 640 Кбит/сек
Каналы : 6 каналов
Расположение каналов : Front: L C R, Side: L R, LFE
Частота : 48,0 КГц
Частота кадров : 31,250 кадров/сек (1536 spf)
Метод сжатия : С потерями
Размер потока : 222 Мбайт (12%)
Заголовок : English DD5.1 @ 640kbps
Язык : English
Default : Нет
Forced : Нет

Текст #1
Идентификатор : 4
Формат : UTF-8
Идентификатор кодека : S_TEXT/UTF8
Идентификатор кодека/Информация : UTF-8 Plain Text
Заголовок : Eng Forced
Язык : English
Default : Нет
Forced : Нет

Текст #2
Идентификатор : 5
Формат : UTF-8
Идентификатор кодека : S_TEXT/UTF8
Идентификатор кодека/Информация : UTF-8 Plain Text
Заголовок : SDH
Язык : English
Default : Нет
Forced : Нет

Текст #3
Идентификатор : 6
Формат : UTF-8
Идентификатор кодека : S_TEXT/UTF8
Идентификатор кодека/Информация : UTF-8 Plain Text
Заголовок : Eng sub
Язык : English
Default : Нет
Forced : Нет

Внимание! Раздача ведётся путём добавления новых серий; при каждом добавлении создаётся новый торрент. Чтобы начать докачку новой серии, пользователям необходимо сделать следующее:
(1) остановить скачивание,
(2) удалить старый торрент у себя из клиента (старые серии удалять не надо),
(3) скачать новый торрент и запустить его у себя в клиенте вместо старого, при этом указать клиенту путь в старую папку куда и должно происходить скачивание новых серий.
Ваш клиент при этом должен произвести хеширование (проверку) старой папки (если не производит сам - помогите ему сделать это), и будет докачивать только те серии которых у вас ещё нет. Старые серии при этом не удаляются, а продолжают раздаваться!
Eсли вы уже удалили старые серии, то предотвратить повторную закачку старых серий можно, отжав галочку в соответствующих местах при запуске нового торрента. По возможности, желательно не удалять старые серии как можно дольше чтобы релизёр не столько продолжал раздавать старые серии, а смог сконцентрироваться на новых.
pb.wtf



Скачать Лучше звоните Солу через торрент http://i80.fastpic.ru/big/2018/1013/64/b764bf843be43cd8c2ce7b7716921364.png Скачать фильм Лучше звоните Солу через торрент бесплантно в хорошем качестве Описание:Эксцентричный адвокат Сол Гудман за шесть лет до появления в сериале «Во все тяжкие» пытается открыть свою собственную контору в ... 10 10 3
Торрент: Зарегистрирован [2018-10-20 17:55] · скачан: 27 раз
Статус: √ проверено
Размер: 15.19 GB
Как cкачать? Как скачать Лучше звоните Солу через торрент | qTorrent

% Раздел Тема Автор DL S | L
Зарубежные сериалы [ 8.47 GB ] Лучше звоните Солу / Better call Saul / Сезон: 4 / Серии 1-10 из 10 [2018 WEBRip 1080p HEVC двухголосый Кубик в Кубе] aksaleale Скачать
1 | 0
Зарубежные сериалы [ 5.97 GB ] Лучше звоните Солу / Better Call Saul / Сезон: 4 / Серии: 1-10 из 10 [2018 WEB-DLRip] MVO [NewStudio] bober100 Скачать
1 | 0
Зарубежные сериалы [ 14.08 GB ] Лучше звоните Солу / Better Call Saul / Сезон: 4 / Серии: 1-10 из 10 [2018 WEBRip 720p] [MVO] killermax2013 Скачать
1 | 0
Зарубежные сериалы [ 28.53 GB ] Лучше звоните Солу / Better Call Saul / Сезон: 4 / Серии: 1-10 из 10 [2018 WEBRip 1080p] [MVO] killermax2013 Скачать
1 | 0
Зарубежные сериалы [ 5.8 GB ] Лучше звоните Солу / Better Call Saul / Сезон: 4 / Серии: 1-10 из 10 [2018 WEBRip] [MVO] killermax2013 Скачать
1 | 0
Зарубежные сериалы [ 15.45 GB ] Лучше звоните Солу / Better Call Saul / Сезон: 4 / Серии: 1-10 из 10 [2018 WEBRip 720p] MVO [Lostfilm] bober100 Скачать
1 | 0
Зарубежные сериалы [ 25.17 GB ] Лучше звоните Солу / Better Call Saul / Сезон: 4 / Серии: 1-10 из 10 [2018 WEBRip 1080p] MVO [Baibako] bober100 Скачать
1 | 0

28-11-2019 20:33  

Отключить всю рекламу на сайте

    Дорогой пользователь! Огромная просьба, поблагодарите релизера, оцените раздачу и оставьте свои комментарий, если Вы скачали Лучше звоните Солу через торрент бесплатно! Внесите свою лепту в развитие PiratBit!
    Комментировать посты могут только пользователи прошедшие не сложную регистрацию
    Показать сообщения:    

    Лучше звоните Солу через торрент
    Скачать бесплатно Лучше звоните Солу
    Лучше звоните Солу скачать торрент
    Лучше звоните Солу смотреть онлайн
    Cкачать фильм Лучше звоните Солу бесплатно
    Лучше звоните Солу скачать торрент в хорошем качестве
    Лучше звоните Солу смотреть онлайн бесплатно в хорошем качестве


    Вы не можете начинать темы
    Вы не можете отвечать на сообщения
    Вы не можете редактировать свои сообщения
    Вы не можете удалять свои сообщения
    Вы не можете голосовать в опросах
    Вы не можете прикреплять файлы к сообщениям
    Вы можете скачивать файлы