Ссылка на приватное зеркало всего за 1$. Внимание количество ограничено!!!

OK

1+1

iTunes

мы

OK

1

WEB-DLRip

Джокер

Пифагор

Ведьмак / The Witcher сериал

iTunes

ПШазам

ОК

Оно 2

iTunes

30
pack

Вам бонус

ВАЖНО

!!Акция!!

Alien_RageХит недели

RePack

Resident Evil 21

ИГРА 18+

pack

RePack

jed

RePack

fifa19

RePack

Assassins Creed: Odyssey

RePack

NEED FOR SPEED™ PAYBACK

4 сезон

9 сезон

Бесстыжие 9 сезон

Все сериалы

все сериалы на PB.wtf

RePack

FAR CRY 5
  

Аура / Aura (Стив Лосон) [2018, Ужасы, WEB-DL 720p] MVO ["Синема УС"] pb.wtf

Аура через торрент pb.wtf

Размер: 2.83 GB | Добавлен: 1 год 5 мес. назад | Торрент скачан:98 раз
Скачать  

10-08-2018 13:28 Аура Скачать торрент  

Аура / AuraГод выпуска: 2018
Страна: США
Жанр: Ужасы
Продолжительность: 01:25:56
Перевод: Любительский (многоголосый) | "Синема УС"
Субтитры: отсутствуют

Режиссер: Стив Лосон

rating

В ролях:

Шэйн Тейлор, Рула Ленска, Денис Морено, Джанин Нерисса, Джей Сазерленд, Стивен Долтон, Джейн МакФарлейн, Фрейя Грин

Описание:

Семейная пара обнаруживает камеру Кирлиана в своем новом доме. Заинтересовавшись концепцией фотографирования ауры человека, они случайно выпускают древнее зло. Лишь местный медиум может помочь им, и она знает гораздо больше, чем говорит.

Качество: WEB-DL 720p
Формат: MKV

Видео: h.264, 4 332 kb/s, 1280x544
Аудио#1: Русский (AC3, 2 ch, 384 Кбит/с)
скриншот  скриншот  скриншот  

Общее
Уникальный идентификатор : 218513203709000485252914909131368189562 (0xA4641CBAE3D78A4F82052DD2C4864E7A)
Полное имя : D:\Aura.2018.P.WEB-DL.72Op_KOSHARA.mkv
Формат : Matroska
Версия формата : Version 2
Размер файла : 2,83 Гбайт
Продолжительность : 1 ч. 25 м.
Режим общего битрейта : Переменный
Общий поток : 4718 Кбит/сек
Дата кодирования : UTC 2018-08-09 12:04:50
Программа кодирования : mkvmerge v8.3.0 ('Over the Horizon') 64bit
Библиотека кодирования : libebml v1.3.1 + libmatroska v1.4.2

Видео
Идентификатор : 1
Формат : AVC
Формат/Информация : Advanced Video Codec
Профиль формата : High@L4.1
Параметр CABAC формата : Да
Параметр RefFrames формата : 4 кадра
Идентификатор кодека : V_MPEG4/ISO/AVC
Продолжительность : 1 ч. 25 м.
Вид битрейта : Переменный
Битрейт : 4332 Кбит/сек
Максимальный битрейт : 5000 Кбит/сек
Ширина : 1280 пикселей
Высота : 544 пикселя
Соотношение сторон : 2,35:1
Режим частоты кадров : Постоянный
Частота кадров : 23,976 (24000/1001) кадра/сек
Стандарт вещания : Component
Цветовое пространство : YUV
Субдискретизация насыщенности : 4:2:0
Битовая глубина : 8 бит
Тип развёртки : Прогрессивная
Бит/(Пиксели*Кадры) : 0.254
Размер потока : 2,55 Гбайт (90%)
Default : Да
Forced : Нет
Цветовой диапазон : Limited
Основные цвета : BT.709
Характеристики трансфера : BT.709
Коэффициенты матрицы : BT.709

Аудио
Идентификатор : 2
Формат : AC-3
Формат/Информация : Audio Coding 3
Расширение режима : CM (complete main)
Параметр Endianness формата : Big
Идентификатор кодека : A_AC3
Продолжительность : 1 ч. 25 м.
Вид битрейта : Постоянный
Битрейт : 384 Кбит/сек
Каналы : 2 канала
Расположение каналов : Front: L R
Частота : 48,0 КГц
Частота кадров : 31,250 кадров/сек (1536 spf)
Метод сжатия : С потерями
Размер потока : 236 Мбайт (8%)
Default : Да
Forced : Нет

pb.wtf



Скачать Аура через торрент http://img11.lostpic.net/2018/08/10/95943637520e770f4171d194c7ff123c.jpg Скачать фильм Аура через торрент бесплантно в хорошем качестве Описание: Семейная пара обнаруживает камеру Кирлиана в своем новом доме. Заинтересовавшись концепцией фотографирования ауры человека, они ... 9.6 10 7
Торрент: Зарегистрирован [2018-08-10 13:28] · скачан: 98 раз
Статус: T временная
Размер: 2.83 GB
Как cкачать? Как скачать Аура через торрент | qTorrent

% Раздел Тема Автор DL S | L
T Фильмы (мультфильмы) cо спонсором показа (Новинки AVI/MKV) [ 1.36 GB ] Аура / Aura [2018 WEB-DLRip] MVO ["Синема УС"] bober100 Скачать
1 | 0
Зарубежные сериалы [ 23.1 GB ] Рабыня Изаура / Escrava Isaura / Серии: 1-100 из 100 [1976 SATRip многоголосый] lexxus350 Скачать
1 | 0
Зарубежные сериалы [ 10.39 GB ] Мыслить как преступник: За границей / Criminal Minds: Beyond Borders / Сезон 1 / Серии 1-13 из 13 [2016 WEB-DLRip-AVC] MVO [BaibaKo] GEKADOL Скачать
1 | 0
Разное [ 243 MB ] Аура Авроры / Aura of aurora [2013 All sex SATRip] sheker187 Скачать
1 | 0
Документальные фильмы 3D [ 4.53 GB ] Вселенная: Семь чудес Солнечной системы в 3Д / The Universe: 7 Wonders of The Solar System 3D [2010 документальный космос BDrip-AVC] Half SideBySide / Горизонтальная анаморфная стереопара oartemka178 Скачать
1 | 0
Иностранные мультфильмы [ 1.37 GB ] Лаура Штерн и таинственный дракон Ниан / Lauras Stern und der geheimnisvolle Drache Nian [2009 мультфильм DVDRip] Shmel Скачать
1 | 0
Shemale / Трансcексуалы [ 78 MB ] [transsex] Shemale Лаура Ферраз Соло / Shemale Laura Feraz Solo [DVDRip] Joup Скачать
1 | 0

28-11-2019 20:33  

Отключить всю рекламу на сайте

    Дорогой пользователь! Огромная просьба, поблагодарите релизера, оцените раздачу и оставьте свои комментарий, если Вы скачали Аура через торрент бесплатно! Внесите свою лепту в развитие PiratBit!
    Комментировать посты могут только пользователи прошедшие не сложную регистрацию
    Показать сообщения:    

    Аура через торрент
    Скачать бесплатно Аура
    Аура скачать торрент
    Аура смотреть онлайн
    Cкачать фильм Аура бесплатно
    Аура скачать торрент в хорошем качестве
    Аура смотреть онлайн бесплатно в хорошем качестве


    Вы не можете начинать темы
    Вы не можете отвечать на сообщения
    Вы не можете редактировать свои сообщения
    Вы не можете удалять свои сообщения
    Вы не можете голосовать в опросах
    Вы не можете прикреплять файлы к сообщениям
    Вы можете скачивать файлы