Ссылка на приватное зеркало всего за 1$. Внимание количество ограничено!!!

OK

1+1

iTunes

мы

OK

1

WEB-DLRip

Джокер

Пифагор

Ведьмак / The Witcher сериал

Лицензия

ПШазам

ОК

Оно 2

iTunes

30
pack

Вам бонус

ВАЖНО

!!Акция!!

Alien_RageХит недели

RePack

Resident Evil 21

ИГРА 18+

pack

RePack

jed

!!Акция!!

Alien_Rage

RePack

fifa19

RePack

Assassins Creed: Odyssey

RePack

NEED FOR SPEED™ PAYBACK

4 сезон

9 сезон

Бесстыжие 9 сезон

Все сериалы

все сериалы на PB.wtf

RePack

FAR CRY 5
  

Суперполицейские 2 / Super Troopers 2 (Джей Чандрашекхар) [2018, комедия, криминал, детектив, BDRip 1080p] 2xMVO [HDRezka Studio, iTunes] pb.wtf

Суперполицейские 2 через торрент pb.wtf

Размер: 11.38 GB | Добавлен: 1 год 5 мес. назад | Торрент скачан:325 раз
Скачать  

10-08-2018 15:58 Суперполицейские 2 Скачать торрент  

Суперполицейские 2 / Super Troopers 2
Год выпуска: 2018
Страна: США
Жанр: комедия, криминал, детектив
Продолжительность: 01:39:30
Перевод:

#1: Профессиональный (многоголосый, закадровый) | iTunes
#2: Профессиональный многоголосый | HDRezka Studio

Субтитры: Русские (full), английские

Режиссер: Джей Чандрашекхар

rating

В ролях:

Шонн Уильям Скотт, Клифтон Коллинз мл., Стив Лемми, Эрик Столханске, Джей Чандрашекхар, Пол Сотер, Дэймон Уайанс мл., Кевин Хеффернан, Брайан Кокс, Мариса Кохлан

Описание:

Фильм расскажет о безалаберных дорожных патрульных из маленького городка на границе США и Канады. Чтобы навести порядок на пограничной дороге и разрешить международный конфликт, пятёрка суперполицейских вынуждена сотрудничать со своими невыносимыми канадскими коллегами.

Качество: BDRip 1080p
Формат: MKV

Видео: MPEG-4 AVC, 1920x1036, 14.3 Mbit/s, 23.976 fps
Аудио#1: 48 kHz, AC3, 5.1, 384 Kbps | iTunes | RUS |
Аудио#2: 48 kHz, AC3, 2.0, 192 Kbps | HDRezka Studio | RUS |
Аудио#3: 48 kHz, DTS, 5.1, 1510 Kbps | Оригинал | ENG |
скриншот  скриншот  скриншот  скриншот  скриншот  

General
Unique ID : 179949319866762066587029752354373645292 (0x8760FA75D2F0F56AA3E66311D33833EC)
Complete name : D:Video111Super.Troopers.2.2018.BDRip.1080p.ExKinoRay.mkv
Format : Matroska
Format version : Version 4 / Version 2
File size : 11.4 GiB
Duration : 1 h 39 min
Overall bit rate : 16.4 Mb/s
Movie name : Super Troopers 2 2018 from ExKInoRay
Encoded date : UTC 2018-08-10 15:35:09
Writing application : mkvmerge v7.3.0 ('Nouages') 64bit built on Oct 22 2014 18:53:34
Writing library : libebml v1.3.0 + libmatroska v1.4.1

Video
ID : 1
Format : AVC
Format/Info : Advanced Video Codec
Format profile : High@L4.1
Format settings : CABAC / 4 Ref Frames
Format settings, CABAC : Yes
Format settings, ReFrames : 4 frames
Codec ID : V_MPEG4/ISO/AVC
Duration : 1 h 39 min
Bit rate : 14.3 Mb/s
Width : 1 920 pixels
Height : 1 036 pixels
Display aspect ratio : 1.85:1
Frame rate mode : Constant
Frame rate : 23.976 (24000/1001) FPS
Color space : YUV
Chroma subsampling : 4:2:0
Bit depth : 8 bits
Scan type : Progressive
Bits/(Pixel*Frame) : 0.300
Stream size : 9.93 GiB (87%)
Writing library : x264 core 129 r2245 bc13772
Encoding settings : cabac=1 / ref=4 / deblock=1:-3:-3 / analyse=0x3:0x133 / me=umh / subme=11 / psy=1 / psy_rd=1.05:0.10 / mixed_ref=1 / me_range=64 / chroma_me=1 / trellis=2 / 8x8dct=1 / cqm=0 / deadzone=21,11 / fast_pskip=0 / chroma_qp_offset=-3 / threads=12 / lookahead_threads=2 / sliced_threads=0 / nr=0 / decimate=1 / interlaced=0 / bluray_compat=0 / constrained_intra=0 / bframes=8 / b_pyramid=2 / b_adapt=2 / b_bias=0 / direct=3 / weightb=1 / open_gop=0 / weightp=2 / keyint=250 / keyint_min=23 / scenecut=40 / intra_refresh=0 / rc_lookahead=60 / rc=2pass / mbtree=1 / bitrate=14310 / ratetol=1.0 / qcomp=0.60 / qpmin=0 / qpmax=69 / qpstep=4 / cplxblur=20.0 / qblur=0.5 / vbv_maxrate=40000 / vbv_bufsize=30000 / nal_hrd=none / ip_ratio=1.40 / aq=1:0.80
Language : English
Default : Yes
Forced : No

Audio #1
ID : 2
Format : AC-3
Format/Info : Audio Coding 3
Commercial name : Dolby Digital
Codec ID : A_AC3
Duration : 1 h 39 min
Bit rate mode : Constant
Bit rate : 384 kb/s
Channel(s) : 6 channels
Channel positions : Front: L C R, Side: L R, LFE
Sampling rate : 48.0 kHz
Frame rate : 31.250 FPS (1536 SPF)
Bit depth : 16 bits
Compression mode : Lossy
Stream size : 273 MiB (2%)
Title : iTunes
Language : Russian
Service kind : Complete Main
Default : Yes
Forced : Yes

Audio #2
ID : 3
Format : AC-3
Format/Info : Audio Coding 3
Commercial name : Dolby Digital
Codec ID : A_AC3
Duration : 1 h 39 min
Bit rate mode : Constant
Bit rate : 192 kb/s
Channel(s) : 2 channels
Channel positions : Front: L R
Sampling rate : 48.0 kHz
Frame rate : 31.250 FPS (1536 SPF)
Bit depth : 16 bits
Compression mode : Lossy
Stream size : 137 MiB (1%)
Title : MVO [HDRezka Studio]
Language : Russian
Service kind : Complete Main
Default : No
Forced : No

Audio #3
ID : 4
Format : DTS
Format/Info : Digital Theater Systems
Codec ID : A_DTS
Duration : 1 h 39 min
Bit rate mode : Constant
Bit rate : 1 509 kb/s
Channel(s) : 6 channels
Channel positions : Front: L C R, Side: L R, LFE
Sampling rate : 48.0 kHz
Frame rate : 93.750 FPS (512 SPF)
Bit depth : 24 bits
Compression mode : Lossy
Stream size : 1.05 GiB (9%)
Title : Original
Language : English
Default : No
Forced : No

Text #1
ID : 5
Format : UTF-8
Codec ID : S_TEXT/UTF8
Codec ID/Info : UTF-8 Plain Text
Duration : 1 h 38 min
Bit rate : 119 b/s
Count of elements : 1801
Stream size : 86.1 KiB (0%)
Title : Full
Language : Russian
Default : No
Forced : No

Text #2
ID : 6
Format : UTF-8
Codec ID : S_TEXT/UTF8
Codec ID/Info : UTF-8 Plain Text
Duration : 1 h 39 min
Bit rate : 87 b/s
Count of elements : 2110
Stream size : 64.0 KiB (0%)
Title : Full
Language : English
Default : No
Forced : No

Text #3
ID : 7
Format : UTF-8
Codec ID : S_TEXT/UTF8
Codec ID/Info : UTF-8 Plain Text
Duration : 1 h 39 min
Bit rate : 108 b/s
Count of elements : 2544
Stream size : 79.2 KiB (0%)
Title : SDH
Language : English
Default : No
Forced : No

Menu
00:00:00.000 : en:Chapter 01
00:05:15.398 : en:Chapter 02
00:09:08.756 : en:Chapter 03
00:12:43.012 : en:Chapter 04
00:16:12.972 : en:Chapter 05
00:22:11.955 : en:Chapter 06
00:26:35.552 : en:Chapter 07
00:29:48.620 : en:Chapter 08
00:33:19.956 : en:Chapter 09
00:36:33.608 : en:Chapter 10
00:40:04.527 : en:Chapter 11
00:43:10.879 : en:Chapter 12
00:46:35.209 : en:Chapter 13
00:51:43.141 : en:Chapter 14
00:55:46.801 : en:Chapter 15
01:01:09.207 : en:Chapter 16
01:04:57.018 : en:Chapter 17
01:07:07.064 : en:Chapter 18
01:11:33.247 : en:Chapter 19
01:14:53.530 : en:Chapter 20
01:17:32.522 : en:Chapter 21
01:22:55.136 : en:Chapter 22
01:26:08.621 : en:Chapter 23
01:28:43.901 : en:Chapter 24

pb.wtf



Скачать Суперполицейские 2 через торрент https://d.radikal.ru/d34/1807/38/eacde9cc2657.png Скачать фильм Суперполицейские 2 через торрент бесплантно в хорошем качестве Описание: Фильм расскажет о безалаберных дорожных патрульных из маленького городка на границе США и Канады. Чтобы навести порядок на ... 10 10 9
Торрент: Зарегистрирован [2018-08-10 15:58] · скачан: 325 раз
Статус: √ проверено
Размер: 11.38 GB
Как cкачать? Как скачать Суперполицейские 2 через торрент | qTorrent

% Раздел Тема Автор DL S | L
Фильмы 2018 [DVDrip, WEB-DLRip, HDrip] (DUB, MVO) [ 2.46 GB ] Суперполицейские 2 / Super Troopers 2 [2018 BDRip] 2xMVO [HDrezka Studio ] bober100 Скачать
3 | 0
Фильмы 2018 [DVDrip, WEB-DLRip, HDrip] (DUB, MVO) [ 1.42 GB ] Суперполицейские 2 / Super Troopers 2 [2018 BDRip] MVO - Twi7ter Скачать
5 | 0
Фильмы (Blu-ray, BD-Remux, HDDVD) [ 26.87 GB ] Суперполицейские 2 / Super Troopers 2 [2018 BD Remux 1080p] 2xMVO [HDRezka Studio ] bober100 Скачать
1 | 0
Фильмы [HD 720p, 1080p] (Хороший звук DUB, MVO) [ 5.36 GB ] Суперполицейские 2 / Super Troopers 2 [2018 BDRip 720p] DUB +MVO bober100 Скачать
2 | 0
Фильмы 2018 [DVDrip, WEB-DLRip, HDrip] (DUB, MVO) [ 747 MB ] Суперполицейские 2 / Super Troopers 2 [2018 BDRip] MVO bober100 Скачать
1 | 0
T Фильмы с украинским озвучиванием [ 2.19 GB ] Суперполицейские 2 / Super Troopers 2 [2018 BDRip-AVC] [Ukr DUB] killermax2013 Скачать
1 | 0
Фильмы 2018 [DVDrip, WEB-DLRip, HDrip] (DUB, MVO) [ 1.47 GB ] Суперполицейские 2 / Super Troopers 2 [2018 BDRip] DUB +MVO bober100 Скачать
2 | 0

28-11-2019 20:33  

Отключить всю рекламу на сайте

    Дорогой пользователь! Огромная просьба, поблагодарите релизера, оцените раздачу и оставьте свои комментарий, если Вы скачали Суперполицейские 2 через торрент бесплатно! Внесите свою лепту в развитие PiratBit!
    Комментировать посты могут только пользователи прошедшие не сложную регистрацию
    Показать сообщения:    

    Суперполицейские 2 через торрент
    Скачать бесплатно Суперполицейские 2
    Суперполицейские 2 скачать торрент
    Суперполицейские 2 смотреть онлайн
    Cкачать фильм Суперполицейские 2 бесплатно
    Суперполицейские 2 скачать торрент в хорошем качестве
    Суперполицейские 2 смотреть онлайн бесплатно в хорошем качестве


    Вы не можете начинать темы
    Вы не можете отвечать на сообщения
    Вы не можете редактировать свои сообщения
    Вы не можете удалять свои сообщения
    Вы не можете голосовать в опросах
    Вы не можете прикреплять файлы к сообщениям
    Вы можете скачивать файлы