новый адрес пиратбит piratbit
Мега распродажа FORZA HORIZON 4 ULTIMATE+ВСЕ DLC+ОНЛАЙН всего за 499р. 349 руб. (супер цена). Внимание количество ограничено!!!

iTunes

1+1

iTunes

мы

iTunes

1

iTunes

Чернобыль

iTunes

Ральф против интернета

Лицензия

ПШазам

Лицензия

Игра престолов

Лицензия

30
pack

ВАЖНО

!!Акция!!

Alien_RageХит недели

RePack

Resident Evil 21

ИГРА 18+

pack

RePack

Metro:Exodus

!!Акция!!

Alien_Rage

RePack

fifa19

RePack

Assassins Creed: Odyssey

RePack

NEED FOR SPEED™ PAYBACK

3 сезон

9 сезон

Бесстыжие 9 сезон

Все сериалы

все сериалы на PB.wtf

RePack

FAR CRY 5
Ребята, катастрофически не хватает 1900р. для оплаты серверов за Октябрь (всвязи с блокировками трафик упал в 3 раза), 1-2р., выручайте.
  

Живите в радости (Леонид Миллионщиков) [1978 г., комедия, DVBRip-AVC] pb.wtf

Живите в радости через торрент pb.wtf

Размер: 1.16 GB | Добавлен: 1 год 3 мес. назад | Торрент скачан:34 раза
Скачать  

10-08-2018 20:16 Живите в радости Скачать торрент  

Живите в радостиГод выпуска: 1978
Страна: СССР
Жанр: комедия
Продолжительность: 01:11:41

Режиссер: Леонид Миллионщиков

Премьера в мире: 5 марта 1979

В ролях: Елена Драпеко, Борис Новиков, Александра Данилова, Светлана Харитонова, Роман Филиппов, Валентина Телегина, Зоя Федорова, Нина Гребешкова, Савелий Крамаров, Леонид Куравлев, Владимир Басов

Описание: О герое фильма односельчане говорят: «Золотые руки!» Нет такого механизма, который он не мог бы починить, а то и смастерить заново. И земляки его теперь горя не знают — чуть что сломалось, зовут на помощь безотказного чудака Митяя.

rating

Качество: DVBRip-AVC
Формат: MKV

Видео: AVC/H.264, 720x312, ~2126 kbps
Аудио: AC3, 2 ch, 192 kbps
Общее
Уникальный идентификатор : 235283535383311489746418293856688306382 (0xB101F5EB4C198F26A892169F5BAA78CE)
Полное имя : D:\Советские фильмы\Куравлёв Леонид Вячеславович\Живите в радости\Живите в радости. 1978.mkv
Формат : Matroska
Версия формата : Version 4 / Version 2
Размер файла : 1,16 Гбайт
Продолжительность : 1 ч. 11 м.
Общий поток : 2320 Кбит/сек
Название фильма : Release for Topmost
Дата кодирования : UTC 2018-08-05 08:25:47
Программа кодирования : mkvmerge v6.2.0 ('Promised Land') built on Apr 28 2013 12:22:01
Библиотека кодирования : libebml v1.3.0 + libmatroska v1.4.0
Attachment : Yes

Видео
Идентификатор : 1
Формат : AVC
Формат/Информация : Advanced Video Codec
Профиль формата : High@L4.1
Параметр CABAC формата : Да
Параметр ReFrames формата : 12 кадров
Идентификатор кодека : V_MPEG4/ISO/AVC
Продолжительность : 1 ч. 11 м.
Битрейт : 2126 Кбит/сек
Ширина : 720 пикселей
Высота : 312 пикселей
Соотношение сторон : 2,35:1
Режим частоты кадров : Постоянный
Частота кадров : 25,000 кадров/сек
Цветовое пространство : YUV
Субдискретизация насыщенности : 4:2:0
Битовая глубина : 8 бит
Тип развёртки : Прогрессивная
Бит/(Пиксели*Кадры) : 0.379
Размер потока : 1,04 Гбайт (90%)
Заголовок : Живите в радости. 1978 (Release for Topmost)
Библиотека кодирования : x264 core 146 r2538 121396c
Настройки программы : cabac=1 / ref=12 / deblock=1:-3:-3 / analyse=0x3:0x113 / me=umh / subme=11 / psy=1 / psy_rd=1.00:0.15 / mixed_ref=1 / me_range=32 / chroma_me=1 / trellis=2 / 8x8dct=1 / cqm=0 / deadzone=21,11 / fast_pskip=0 / chroma_qp_offset=-3 / threads=12 / lookahead_threads=2 / sliced_threads=0 / nr=0 / decimate=0 / interlaced=0 / bluray_compat=0 / constrained_intra=0 / bframes=8 / b_pyramid=2 / b_adapt=2 / b_bias=0 / direct=3 / weightb=1 / open_gop=0 / weightp=2 / keyint=240 / keyint_min=23 / scenecut=40 / intra_refresh=0 / rc_lookahead=40 / rc=2pass / mbtree=1 / bitrate=2126 / ratetol=1.0 / qcomp=0.60 / qpmin=0 / qpmax=69 / qpstep=4 / cplxblur=20.0 / qblur=0.5 / ip_ratio=1.40 / aq=1:0.90
Язык : Russian
Default : Да
Forced : Нет

Аудио
Идентификатор : 2
Формат : AC-3
Формат/Информация : Audio Coding 3
Расширение режима : CM (complete main)
Параметр Endianness формата : Big
Идентификатор кодека : A_AC3
Продолжительность : 1 ч. 11 м.
Вид битрейта : Постоянный
Битрейт : 192 Кбит/сек
Каналы : 2 канала
Расположение каналов : Front: L R
Частота : 48,0 КГц
Битовая глубина : 16 бит
Метод сжатия : С потерями
Размер потока : 98,5 Мбайт (8%)
Default : Да
Forced : Нет
pb.wtf



Скачать Живите в радости через торрент http://i28.fastpic.ru/big/2012/0119/be/1c0a2bb4e6bbc65f546a788b1057d8be.jpg Скачать фильм Живите в радости через торрент бесплантно в хорошем качестве Описание: О герое фильма односельчане говорят: «Золотые руки!» Нет такого механизма, который он не мог бы починить, а то и смастерить ... 10 10 2
Торрент: Зарегистрирован [2018-08-10 20:16] · скачан: 34 раз
Статус: √ проверено
Размер: 1.16 GB
Как cкачать? Как скачать Живите в радости через торрент | qTorrent

% Раздел Тема Автор DL S | L
Кино СССР [ 1.15 GB ] Живите в радости [1978 DVDRip] IceLips Скачать
1 | 0


>> Регистрируемся здесь <<






Отзывы и комментарии о схеме читаем и пишем здесь: ---> Отзывы и комментарии о схеме

Новые благодарочки в телеграм довольных пользователей:
скриншот   скриншот   скриншот   скриншот   скриншот
    Дорогой пользователь! Огромная просьба, поблагодарите релизера, оцените раздачу и оставьте свои комментарий, если Вы скачали Живите в радости через торрент бесплатно! Внесите свою лепту в развитие PiratBit!
    Комментировать посты могут только пользователи прошедшие не сложную регистрацию
    Показать сообщения:    

    Живите в радости через торрент
    Скачать бесплатно Живите в радости
    Живите в радости скачать торрент
    Живите в радости смотреть онлайн
    Cкачать фильм Живите в радости бесплатно
    Живите в радости скачать торрент в хорошем качестве
    Живите в радости смотреть онлайн бесплатно в хорошем качестве


    Вы не можете начинать темы
    Вы не можете отвечать на сообщения
    Вы не можете редактировать свои сообщения
    Вы не можете удалять свои сообщения
    Вы не можете голосовать в опросах
    Вы не можете прикреплять файлы к сообщениям
    Вы можете скачивать файлы