Ссылка на приватное зеркало нашего сайта всего за 1$. Внимание количество ограничено!!!

2 сезон

iTunes

1 сезон

1

2 сезон

2 сезон

iTunes

1 сезон

RePack

30

Ultimate

ВАЖНО

ИГРА 18+

pack

RePack

MK11
pack

Забери бонус

RePack

jed

!!Акция!!

Alien_Rage

RePack

fifa19

RePack

Assassins Creed: Odyssey

RePack

NEED FOR SPEED™ PAYBACK

4 сезон

9 сезон

Бесстыжие 9 сезон

Все сериалы

все сериалы на PB.wtf

RePack

FAR CRY 5
  

Крушение / Wrecked / Сезон: 3 / Серии 1-6 из 10 (Стюарт МакДональд / Stuart McDonald, Тодд Бирман / Todd Biermann, Джеймс Гриффитс / James Griffiths) [2018, США, комедия, WEBRip] MVO [BaibaKo] pb.wtf

Крушение через торрент pb.wtf

Размер: 1.46 GB | Добавлен: 2 года 2 мес. назад | Торрент скачан:18 раз
Скачать  

11-08-2018 03:45 Крушение Скачать торрент  


Крушение / Wrecked



  • Год выпуска: 2017
  • Страна: США
  • Жанр: комедия
  • Продолжительность: 00:21:00 (Серия)
  • Перевод: Профессиональный многоголосый [BaibaKo]
  • Режиссер: Стюарт МакДональд / Stuart McDonald, Тодд Бирман / Todd Biermann, Джеймс Гриффитс / James Griffiths
  • В ролях:

    Зак Креггер (Owen), Азиф Али (Pack), Риз Дэрби (Steve), Брук Диллман (Karen), Джинджер Гонзага (Emma), Уилл Гринберг (Todd), Джессика Лоу (Florence), Элли Матсумура (Jess), Брайан Сакка (Danny), Тодд Алан Даркин (Kurt Turdhole), Лела Элам (Diane from Toledo), Джордж Бейзил (Chet)


  • Когда происходит непредвиденное, заранее не записанное нами в ежедневник, проявляется наша сущность. То, как мы ведём себя, показывает, какие мы есть на самом деле, ведь наносная шелуха в виде хорошего воспитания и светских манер слетает вмиг. Герои сериала «Wrecked» - выжившие пассажиры самолёта, потерпевшего катастрофу над затерянным в океане островом.
    Каждый день эта группа «счастливчиков» подвергается разнообразным опасностям (и причиной большинства из них они являются сами). Среди выживших – два лучших друга: Дэнни и Оуэн. Кажется, эти парни будут разумнее всех остальных. Друзья понимают: чтобы выжить самим и не дать погибнуть другим, они должны стать лидерами нового сообщества и установить собственную Влacть.
  • Рейтинг:



  • Качество: WEBRip
  • Формат: :AVI
  • Видео кодек: XviD
  • Аудио кодек: MP3
  • Видео: 1448 Кбит/сек, 720*400 (16:9), в 23,976 (24000/1001) кадра/сек, MPEG-4 Visual (XviD)
  • Аудио №1: русский 192 Кбит/сек, 48,0 КГц, 2 канала, MPEG Audio (MP3) |[BaibaKo]|
  • Релиз от: GEKADOL

    Внимание! Раздача ведётся путём добавления новых серий; при каждом добавлении создаётся новый торрент. Чтобы начать докачку новой серии, пользователям необходимо сделать следующее:
    (1) остановить скачивание,
    (2) удалить старый торрент у себя из клиента (старые серии удалять не надо),
    (3) скачать новый торрент и запустить его у себя в клиенте вместо старого, при этом указать клиенту путь в старую папку куда и должно происходить скачивание новых серий.
    Ваш клиент при этом должен произвести хеширование (проверку) старой папки (если не производит сам - помогите ему сделать это), и будет докачивать только те серии которых у вас ещё нет. Старые серии при этом не удаляются, а продолжают раздаваться!
    Eсли вы уже удалили старые серии, то предотвратить повторную закачку старых серий можно, отжав галочку в соответствующих местах при запуске нового торрента. По возможности, желательно не удалять старые серии как можно дольше чтобы релизёр не столько продолжал раздавать старые серии, а смог сконцентрироваться на новых.
    Общее
    Полное имя : F:\Крушение (Wrecked) S.3\Wrecked.s03e01.WEBRip.XviD.Rus.BaibaKo.avi
    Формат : AVI
    Формат/Информация : Audio Video Interleave
    Размер файла : 258 Мбайт
    Продолжительность : 21 м. 47 с.
    Общий поток : 1653 Кбит/сек
    Программа кодирования : Lavf57.71.100

    Видео
    Идентификатор : 0
    Формат : MPEG-4 Visual
    Профиль формата : Advanced Simple@L5
    Настройки формата : BVOP2
    Параметр BVOP формата : 2
    Параметр QPel формата : Нет
    Параметр GMC формата : Без точки перехода
    Параметр матрицы формата : Default (H.263)
    Идентификатор кодека : XVID
    Идентификатор кодека/Подсказка : XviD
    Продолжительность : 21 м. 47 с.
    Битрейт : 1448 Кбит/сек
    Ширина : 720 пикселей
    Высота : 400 пикселей
    Соотношение сторон : 16:9
    Частота кадров : 23,976 (24000/1001) кадра/сек
    Цветовое пространство : YUV
    Субдискретизация насыщенности : 4:2:0
    Битовая глубина : 8 бит
    Тип развёртки : Прогрессивная
    Метод сжатия : С потерями
    Бит/(Пиксели*Кадры) : 0.210
    Размер потока : 226 Мбайт (88%)
    Библиотека кодирования : XviD 65

    Аудио
    Идентификатор : 1
    Формат : MPEG Audio
    Версия формата : Version 1
    Профиль формата : Layer 3
    Настройки формата : Joint stereo / MS Stereo
    Идентификатор кодека : 55
    Идентификатор кодека/Подсказка : MP3
    Продолжительность : 21 м. 47 с.
    Вид битрейта : Постоянный
    Битрейт : 192 Кбит/сек
    Каналы : 2 канала
    Частота : 48,0 КГц
    Метод сжатия : С потерями
    Размер потока : 29,9 Мбайт (12%)
    Выравнивание : Соединение по промежуткам
    Продолжительность промежутка : 24 мс. (0,58 видеокадр)
    Время предзагрузки промежутка : 504 мс.
    Библиотека кодирования : LAME3.99.5



    Скриншоты:
    скриншот   скриншот   скриншот   скриншот   скриншот   скриншот   скриншот  
    скриншот  

    Раздача ведётся путём добавления новых серий. Добавлена 6 серия (13.09.2018).Просьба перекачать торрент файл.

    pb.wtf



  • Скачать Крушение через торрент http://pic1.kartinco.top/images/11/f7elz.jpg Скачать фильм Крушение через торрент бесплантно в хорошем качестве qw.png Когда происходит непредвиденное, заранее не записанное нами в ежедневник, проявляется наша сущность. То, как мы ведём себя, ... 10 10 4
    Торрент: Зарегистрирован [2018-09-12 23:27] · скачан: 18 раз
    Статус: √ проверено
    Размер: 1.46 GB
    Как cкачать? Как скачать Крушение через торрент | qTorrent

    28-11-2019 20:33  

    Отключить всю рекламу на сайте

      Дорогой пользователь! Огромная просьба, поблагодарите релизера, оцените раздачу и оставьте свои комментарий, если Вы скачали Крушение через торрент бесплатно! Внесите свою лепту в развитие PiratBit!
      Комментировать посты могут только пользователи прошедшие не сложную регистрацию
      Показать сообщения:    

      Крушение через торрент
      Скачать бесплатно Крушение
      Крушение скачать торрент
      Крушение смотреть онлайн
      Cкачать фильм Крушение бесплатно
      Крушение скачать торрент в хорошем качестве
      Крушение смотреть онлайн бесплатно в хорошем качестве


      Вы не можете начинать темы
      Вы не можете отвечать на сообщения
      Вы не можете редактировать свои сообщения
      Вы не можете удалять свои сообщения
      Вы не можете голосовать в опросах
      Вы не можете прикреплять файлы к сообщениям
      Вы можете скачивать файлы