Ссылка на приватное зеркало нашего сайта всего за 1$. Внимание количество ограничено!!!

2 сезон

iTunes

1 сезон

1

2 сезон

2 сезон

iTunes

1 сезон

RePack

30

Новинка

ВАЖНО

ИГРА 18+

pack

RePack

MK11
pack

Забери бонус

RePack

jed

!!Акция!!

Alien_Rage

RePack

fifa19

RePack

Assassins Creed: Odyssey

RePack

NEED FOR SPEED™ PAYBACK

4 сезон

9 сезон

Бесстыжие 9 сезон

Все сериалы

все сериалы на PB.wtf

RePack

FAR CRY 5
  

Форс-мажоры / Костюмы в законе / Suits / Сезон: 8 / Серии: 1-16 из 16 (Кристофер Мисиано, Майкл Смит, Гэбриел Махт) [2018, драма, комедия, WEB-DL 1080p] MVO [NewStudio] pb.wtf

Форс-мажоры через торрент pb.wtf

Размер: 29.21 GB | Добавлен: 1 год 8 мес. назад | Торрент скачан:71 раз
Скачать  

11-08-2018 05:32 Форс-мажоры Скачать торрент  

Форс-мажоры / Костюмы в законе / Suits
Год выпуска: 2018
Страна: США
Жанр: драма, комедия
Продолжительность: ~ 00:42:00
Перевод: Профессиональный (многоголосый закадровый) | NewStudio
Субтитры: отсутствуют

Режиссер: Кристофер Мисиано, Майкл Смит, Гэбриел Махт, Роджер Камбл и др.

rating

В ролях:

Гэбриел Махт, Рик Хоффман, Сара Рафферти, Кэтрин Хайгл, Алома Райт, Аманда Шулл, Дьюли Хилл, Рэйчел Харрис, Уэндел Пирс и др.

Описание:

После ухода Майка и Рэйчел объединенную фирму ждет ряд потрясений, связанных как с борьбой двух главных партнеров – Харви и Роберта – за управление, так и с конфликтами между старыми и новыми сотрудниками.

Качество: WEB-DL 1080p
Формат: MKV

Видео: 1920x1080 23.976 fps MPEG-4 AVC ~5236 kb/s
Аудио 1: Russian: 48 kHz, AC3, 5.1, ~384.00 kbps (NewStudio)
Аудио 2: English: 48 kHz, AC3, 5.1, ~384.00 kbps


Реклама: отсутствует
Правая рука (Right-Hand Man)
Вертикаль власти (Pecking Order)
Обещания, обещания (Promises, Promises)
Прибыль за квадратный фут (Revenue Per Square Foot)
(Good Mudding)
(Cats, Ballet, Harvey Specter)
...
скриншот  скриншот  скриншот  

скриншот  скриншот  скриншот  
General
Unique ID : 220916219880232143606586754678037478174 (0xA632EA931565C650ECBDA2B71CD0FB1E)
Complete name : Suits\Suits.s08e01.1080p.NewStudio.mkv
Format : Matroska
Format version : Version 2
File size : 1.80 GiB
Duration : 42 min 49 s
Overall bit rate : 6 006 kb/s
Encoded date : UTC 2018-07-22 13:48:18
Writing application : mkvmerge v24.0.0 ('Beyond The Pale') 64-bit
Writing library : libebml v1.3.6 + libmatroska v1.4.9

Video
ID : 1
Format : AVC
Format/Info : Advanced Video Codec
Format profile : High@L4
Format settings : CABAC / 4 Ref Frames
Format settings, CABAC : Yes
Format settings, ReFrames : 4 frames
Codec ID : V_MPEG4/ISO/AVC
Duration : 42 min 49 s
Bit rate : 5 236 kb/s
Width : 1 920 pixels
Height : 1 080 pixels
Display aspect ratio : 16:9
Frame rate mode : Constant
Frame rate : 23.976 (23976/1000) FPS
Color space : YUV
Chroma subsampling : 4:2:0
Bit depth : 8 bits
Scan type : Progressive
Bits/(Pixel*Frame) : 0.105
Stream size : 1.57 GiB (87%)
Language : English
Default : Yes
Forced : No
Color range : Limited
Color primaries : BT.709
Transfer characteristics : BT.709
Matrix coefficients : BT.709

Audio #1
ID : 2
Format : AC-3
Format/Info : Audio Coding 3
Codec ID : A_AC3
Duration : 42 min 49 s
Bit rate mode : Constant
Bit rate : 384 kb/s
Channel(s) : 6 channels
Channel positions : Front: L C R, Side: L R, LFE
Sampling rate : 48.0 kHz
Frame rate : 31.250 FPS (1536 SPF)
Bit depth : 16 bits
Compression mode : Lossy
Delay relative to video : -42 ms
Stream size : 118 MiB (6%)
Language : Russian
Service kind : Complete Main
Default : Yes
Forced : No

Audio #2
ID : 3
Format : AC-3
Format/Info : Audio Coding 3
Codec ID : A_AC3
Duration : 42 min 49 s
Bit rate mode : Constant
Bit rate : 384 kb/s
Channel(s) : 6 channels
Channel positions : Front: L C R, Side: L R, LFE
Sampling rate : 48.0 kHz
Frame rate : 31.250 FPS (1536 SPF)
Bit depth : 16 bits
Compression mode : Lossy
Delay relative to video : -42 ms
Stream size : 118 MiB (6%)
Language : English
Service kind : Complete Main
Default : No
Forced : No
При каждом добавлении создаётся новый торрент.
Чтобы начать докачку новой серии, пользователям необходимо сделать следующее:

Остановить скачивание;
Удалить старый торрент у себя из клиента (старые серии удалять не надо);
Скачать новый торрент и запустить его у себя в клиенте вместо старого, при этом указать клиенту путь в старую папку, куда и должно происходить скачивание новых серий.

Ваш клиент при этом должен произвести хеширование (проверку) старой папки (если не производит сам - помогите ему сделать это), и будет докачивать только те серии, которых у вас ещё нет. Старые серии при этом не удаляются, а продолжают раздаваться.
Eсли вы уже удалили старые серии, то предотвратить повторную закачку старых серий можно, сняв галочку в соответствующих местах при запуске нового торрента. По возможности, желательно не удалять старые серии как можно дольше, чтобы релизер не только продолжал раздавать старые серии, но и мог сконцентрироваться на новых.
pb.wtf



Скачать Форс-мажоры через торрент http://pic1.kartinco.top/images/11/ok5sp.jpg Скачать фильм Форс-мажоры через торрент бесплантно в хорошем качестве Описание: После ухода Майка и Рэйчел объединенную фирму ждет ряд потрясений, связанных как с борьбой двух главных партнеров – Харви и ... 9.3 10 8
Торрент: Зарегистрирован [2019-03-01 21:50] · скачан: 71 раз
Статус: √ проверено
Размер: 29.21 GB
Как cкачать? Как скачать Форс-мажоры через торрент | qTorrent

28-11-2019 20:33  

Отключить всю рекламу на сайте

02-03-2019 10:40 Форс-мажоры Скачать торрент  

из тех сериалов которые вовремя не закрыли и они скатилисьpb.wtf



    Дорогой пользователь! Огромная просьба, поблагодарите релизера, оцените раздачу и оставьте свои комментарий, если Вы скачали Форс-мажоры через торрент бесплатно! Внесите свою лепту в развитие PiratBit!
    Комментировать посты могут только пользователи прошедшие не сложную регистрацию
    Показать сообщения:    

    Форс-мажоры через торрент
    Скачать бесплатно Форс-мажоры
    Форс-мажоры скачать торрент
    Форс-мажоры смотреть онлайн
    Cкачать фильм Форс-мажоры бесплатно
    Форс-мажоры скачать торрент в хорошем качестве
    Форс-мажоры смотреть онлайн бесплатно в хорошем качестве


    Вы не можете начинать темы
    Вы не можете отвечать на сообщения
    Вы не можете редактировать свои сообщения
    Вы не можете удалять свои сообщения
    Вы не можете голосовать в опросах
    Вы не можете прикреплять файлы к сообщениям
    Вы можете скачивать файлы