Ссылка на приватное зеркало всего за 1$. Внимание количество ограничено!!!

OK

1+1

iTunes

мы

OK

1

WEB-DLRip

Джокер

Пифагор

Ведьмак / The Witcher сериал

iTunes

ПШазам

ОК

Оно 2

iTunes

30
pack

Вам бонус

ВАЖНО

!!Акция!!

Alien_RageХит недели

RePack

Resident Evil 21

ИГРА 18+

pack

RePack

jed

RePack

fifa19

RePack

Assassins Creed: Odyssey

RePack

NEED FOR SPEED™ PAYBACK

4 сезон

9 сезон

Бесстыжие 9 сезон

Все сериалы

все сериалы на PB.wtf

RePack

FAR CRY 5
  

Поездка / Проклятые рассказы / Road Trip / The Cursed Tales (Девон Оман) [2017, Мелодрама, комедия, WEB-DL 720p] MVO [КОЛОБОК] pb.wtf

Поездка через торрент pb.wtf

Размер: 2.32 GB | Добавлен: 1 год 5 мес. назад | Торрент скачан:11 раз
Скачать  

11-08-2018 07:34 Поездка Скачать торрент  

Поездка / Проклятые рассказы / Road Trip / The Cursed Tales
Год выпуска: 2017
Страна: США
Жанр: Мелодрама, комедия
Продолжительность: 01:10:35
Перевод: Любительский (многоголосый) | КОЛОБОК
Субтитры: отсутствуют

Режиссер: Девон Оман



В ролях:

Райан Свитцер, Трейси Хильдебрандт, Элиза Швейцер, Трэвис Харт, Карм Ригер, Кори Шиммель, Келли Балас, Тара Маршалл, Холли Андреас, Брили Андреас, Мария Дойл, Кортни Залер, Дж. Дж. Джонсон

Описание:

Молодая семья с дочерью-подростком отправляются в дорожное путешествие на машине. Чтобы хоть как-то скоротать время, девочка читает страшилки из купленной на ярмарке книжки. С наступлением вечера, начинают происходить странности и их поездка тоже начинает походить на одну из этих страшилок.

Качество: WEB-DL 720p
Формат: MKV

Видео: h.264, 4 329 Кбит/с, 1280x720
Аудио#1: Русский, (AC3, 2 ch, 384 Кбит/с)
скриншот  скриншот  скриншот  

Общее
Уникальный идентификатор : 175392072873679654887367744948436791768 (0x83F348D602F39B1A8D1C5D27F2C0F1D8)
Полное имя : D:\Road Trip - The Cursed Tales.2018.Pk.WEB-DL.72Op.mkv
Формат : Matroska
Версия формата : Version 2
Размер файла : 2,32 Гбайт
Продолжительность : 1 ч. 10 м.
Режим общего битрейта : Переменный
Общий поток : 4715 Кбит/сек
Дата кодирования : UTC 2018-08-10 02:42:40
Программа кодирования : mkvmerge v8.3.0 ('Over the Horizon') 64bit
Библиотека кодирования : libebml v1.3.1 + libmatroska v1.4.2

Видео
Идентификатор : 1
Формат : AVC
Формат/Информация : Advanced Video Codec
Профиль формата : High@L4.1
Параметр CABAC формата : Да
Параметр RefFrames формата : 4 кадра
Идентификатор кодека : V_MPEG4/ISO/AVC
Продолжительность : 1 ч. 10 м.
Вид битрейта : Переменный
Битрейт : 4329 Кбит/сек
Максимальный битрейт : 5000 Кбит/сек
Ширина : 1280 пикселей
Высота : 720 пикселей
Соотношение сторон : 16:9
Режим частоты кадров : Постоянный
Частота кадров : 23,976 (24000/1001) кадра/сек
Стандарт вещания : Component
Цветовое пространство : YUV
Субдискретизация насыщенности : 4:2:0
Битовая глубина : 8 бит
Тип развёртки : Прогрессивная
Бит/(Пиксели*Кадры) : 0.192
Размер потока : 2,09 Гбайт (90%)
Default : Да
Forced : Нет
Цветовой диапазон : Limited
Основные цвета : BT.709
Характеристики трансфера : BT.709
Коэффициенты матрицы : BT.709

Аудио
Идентификатор : 2
Формат : AC-3
Формат/Информация : Audio Coding 3
Расширение режима : CM (complete main)
Параметр Endianness формата : Big
Идентификатор кодека : A_AC3
Продолжительность : 1 ч. 10 м.
Вид битрейта : Постоянный
Битрейт : 384 Кбит/сек
Каналы : 2 канала
Расположение каналов : Front: L R
Частота : 48,0 КГц
Частота кадров : 31,250 кадров/сек (1536 spf)
Метод сжатия : С потерями
Размер потока : 194 Мбайт (8%)
Default : Да
Forced : Нет

pb.wtf



Скачать Поездка через торрент http://img11.lostpic.net/2018/08/11/1abdfd7cee77092b7e1a0f3655feae2c.jpg Скачать фильм Поездка через торрент бесплантно в хорошем качестве Описание: Молодая семья с дочерью-подростком отправляются в дорожное путешествие на машине. Чтобы хоть как-то скоротать время, девочка ... 10 10 2
Торрент: Зарегистрирован [2018-08-11 07:34] · скачан: 11 раз
Статус: T временная
Размер: 2.32 GB
Как cкачать? Как скачать Поездка через торрент | qTorrent

% Раздел Тема Автор DL S | L
T Фильмы (мультфильмы) cо спонсором показа (Новинки AVI/MKV) [ 1.37 GB ] Поездка / Проклятые рассказы / Road Trip / The Cursed Tales [2017 Мело WEB-DLRip] MVO [КОЛОБОК] bober100 Скачать
1 | 0


Последний раз редактировалось: bober100 (2018-08-11 21:02), всего редактировалось 1 раз

28-11-2019 20:33  

Отключить всю рекламу на сайте

11-08-2018 19:56 Поездка Скачать торрент  

Добавьте нормальный сэмпл,этот 8kb!pb.wtf



11-08-2018 21:02 Поездка Скачать торрент  

I/O писал(а):

Добавьте нормальный сэмпл,этот 8kb!

Заменилpb.wtf



    Дорогой пользователь! Огромная просьба, поблагодарите релизера, оцените раздачу и оставьте свои комментарий, если Вы скачали Поездка через торрент бесплатно! Внесите свою лепту в развитие PiratBit!
    Комментировать посты могут только пользователи прошедшие не сложную регистрацию
    Показать сообщения:    

    Поездка через торрент
    Скачать бесплатно Поездка
    Поездка скачать торрент
    Поездка смотреть онлайн
    Cкачать фильм Поездка бесплатно
    Поездка скачать торрент в хорошем качестве
    Поездка смотреть онлайн бесплатно в хорошем качестве


    Вы не можете начинать темы
    Вы не можете отвечать на сообщения
    Вы не можете редактировать свои сообщения
    Вы не можете удалять свои сообщения
    Вы не можете голосовать в опросах
    Вы не можете прикреплять файлы к сообщениям
    Вы можете скачивать файлы