Ссылка на приватное зеркало всего за 1$. Внимание количество ограничено!!!

OK

1+1

iTunes

мы

OK

1

WEB-DLRip

Джокер

Пифагор

Ведьмак / The Witcher сериал

iTunes

ПШазам

ОК

Оно 2

iTunes

30
pack

Вам бонус

ВАЖНО

!!Акция!!

Alien_RageХит недели

RePack

Resident Evil 21

ИГРА 18+

pack

RePack

jed

RePack

fifa19

RePack

Assassins Creed: Odyssey

RePack

NEED FOR SPEED™ PAYBACK

4 сезон

9 сезон

Бесстыжие 9 сезон

Все сериалы

все сериалы на PB.wtf

RePack

FAR CRY 5
  

Механоиды: передовая / Mechanoids: frontline (Се Давэй) [2017, Боевик, фантастика, WEB-DL 720p] MVO [КОЛОБОК] pb.wtf

Механоиды: передовая через торрент pb.wtf

Раздают: 1 [ 0 KB/s ]
Размер: 2.16 GB | Добавлен: 1 год 5 мес. назад | Торрент скачан:81 раз
Скачать  

11-08-2018 07:55 Механоиды: передовая Скачать торрент  

Механоиды: передовая / Mechanoids: frontlineГод выпуска: 2017
Страна: Китай
Жанр: Боевик, фантастика
Продолжительность: 01:02:27
Перевод: Любительский (многоголосый) | КОЛОБОК
Субтитры: корейские (вшитые)

Режиссер: Се Давэй



В ролях:

Ким, Сюй Зилу, Хао, Гао Цзинсин

Описание:

Пока группа студентов отдыхает в окрестностях Западных Гор, города Китая и всего мира оказываются захвачены расой механоидов - злобных межзвёздных киборгов. И, возможно, для человечества всё потеряно, ведь на передовой оказываются не подготовленные солдаты, а обычные первокурсники, которым предстоит или раскрыть свой скрытый потенциал и освоить инопланетные технологии - или погибнуть.

Качество: WEB-DL 720p
Формат: MKV

Видео: h.264, 4 507 Кбит/с, 1280x528
Аудио#1: Русский, (AC3, 2 ch, 384 Кбит/с)
скриншот  скриншот  скриншот  

Общее
Уникальный идентификатор : 181936718641049220406166385185586186488 (0x88DFBCC8F63EF1649D082144DDD888F8)
Полное имя : D:\Mechanoids frontline.2O17.Pk.WEB-DL.72Op.mkv
Формат : Matroska
Версия формата : Version 2
Размер файла : 2,16 Гбайт
Продолжительность : 1 ч. 2 м.
Режим общего битрейта : Переменный
Общий поток : 4957 Кбит/сек
Дата кодирования : UTC 2018-08-10 03:40:49
Программа кодирования : mkvmerge v8.3.0 ('Over the Horizon') 64bit
Библиотека кодирования : libebml v1.3.1 + libmatroska v1.4.2

Видео
Идентификатор : 1
Формат : AVC
Формат/Информация : Advanced Video Codec
Профиль формата : High@L4.1
Параметр CABAC формата : Да
Параметр RefFrames формата : 4 кадра
Идентификатор кодека : V_MPEG4/ISO/AVC
Продолжительность : 1 ч. 2 м.
Вид битрейта : Переменный
Битрейт : 4507 Кбит/сек
Максимальный битрейт : 5000 Кбит/сек
Ширина : 1280 пикселей
Высота : 528 пикселей
Соотношение сторон : 2,40:1
Режим частоты кадров : Постоянный
Частота кадров : 23,976 (24000/1001) кадра/сек
Стандарт вещания : Component
Цветовое пространство : YUV
Субдискретизация насыщенности : 4:2:0
Битовая глубина : 8 бит
Тип развёртки : Прогрессивная
Бит/(Пиксели*Кадры) : 0.272
Размер потока : 1,92 Гбайт (89%)
Default : Да
Forced : Нет
Цветовой диапазон : Limited
Основные цвета : BT.709
Характеристики трансфера : BT.709
Коэффициенты матрицы : BT.709

Аудио
Идентификатор : 2
Формат : AC-3
Формат/Информация : Audio Coding 3
Расширение режима : CM (complete main)
Параметр Endianness формата : Big
Идентификатор кодека : A_AC3
Продолжительность : 1 ч. 2 м.
Вид битрейта : Постоянный
Битрейт : 448 Кбит/сек
Каналы : 2 канала
Расположение каналов : Front: L R
Частота : 48,0 КГц
Частота кадров : 31,250 кадров/сек (1536 spf)
Метод сжатия : С потерями
Размер потока : 200 Мбайт (9%)
Default : Да
Forced : Нет

pb.wtf



Скачать Механоиды: передовая через торрент http://img11.lostpic.net/2018/08/11/5cd1709e87f90dc74cdff60ed5bb3f74.jpg Скачать фильм Механоиды: передовая через торрент бесплантно в хорошем качестве Описание: Пока группа студентов отдыхает в окрестностях Западных Гор, города Китая и всего мира оказываются захвачены расой механоидов - ... 9.8 10 6
Торрент: Зарегистрирован [2018-08-11 07:55] · скачан: 81 раз
Статус: T временная
Размер: 2.16 GB
Как cкачать? Как скачать Механоиды: передовая через торрент | qTorrent

% Раздел Тема Автор DL S | L
T Фильмы (мультфильмы) cо спонсором показа (Новинки AVI/MKV) [ 1.37 GB ] Механоиды: передовая / Mechanoids: frontline [2017 WEB-DLRip] MVO [КОЛОБОК] bober100 Скачать
1 | 0


Последний раз редактировалось: bober100 (2018-08-11 21:04), всего редактировалось 1 раз

28-11-2019 20:33  

Отключить всю рекламу на сайте

11-08-2018 08:56 Механоиды: передовая Скачать торрент  

Города китая?!pb.wtf



11-08-2018 09:24 Механоиды: передовая Скачать торрент  

Скрины просто "ОГОНЬ"... pb.wtf



11-08-2018 13:47 Механоиды: передовая Скачать торрент  

Atilla76 писал(а):

Скрины просто "ОГОНЬ"...

Да и сэмпл такой же... pb.wtf



    Дорогой пользователь! Огромная просьба, поблагодарите релизера, оцените раздачу и оставьте свои комментарий, если Вы скачали Механоиды: передовая через торрент бесплатно! Внесите свою лепту в развитие PiratBit!
    Комментировать посты могут только пользователи прошедшие не сложную регистрацию
    Показать сообщения:    

    Механоиды: передовая через торрент
    Скачать бесплатно Механоиды: передовая
    Механоиды: передовая скачать торрент
    Механоиды: передовая смотреть онлайн
    Cкачать фильм Механоиды: передовая бесплатно
    Механоиды: передовая скачать торрент в хорошем качестве
    Механоиды: передовая смотреть онлайн бесплатно в хорошем качестве


    Вы не можете начинать темы
    Вы не можете отвечать на сообщения
    Вы не можете редактировать свои сообщения
    Вы не можете удалять свои сообщения
    Вы не можете голосовать в опросах
    Вы не можете прикреплять файлы к сообщениям
    Вы можете скачивать файлы