Ссылка на приватное зеркало нашего сайта всего за 1$. Внимание количество ограничено!!!

2 сезон

iTunes

1 сезон

1

iTunes

iTunes

iTunes

1 сезон

RePack

30

ИГРА 18+

pack

ВАЖНО

!!Акция!!

Alien_RageХит недели

RePack

MK11
pack

Забери бонус

RePack

jed

!!Акция!!

Alien_Rage

RePack

fifa19

RePack

Assassins Creed: Odyssey

RePack

NEED FOR SPEED™ PAYBACK

4 сезон

9 сезон

Бесстыжие 9 сезон

Все сериалы

все сериалы на PB.wtf

RePack

FAR CRY 5
  

Господа полицейские / Серии: 1-4 из 4 (Вячеслав Златопольский) [2018, Детектив, HDTVRip] pb.wtf

Господа полицейские через торрент pb.wtf

Размер: 2.09 GB | Добавлен: 2 года 2 мес. назад | Торрент скачан:99 раз
Скачать  

11-08-2018 12:17 Господа полицейские Скачать торрент  

Господа полицейскиеГод выпуска: 2018
Страна: Россия
Жанр: Детектив
Продолжительность: ~ 00:44:00
Субтитры: отсутствуют

Режиссер: Вячеслав Златопольский



В ролях:

Илья Соболев, Иван Латушко, Валерия Бурдужа, Саид Багов, Юлия Такшина, Антон Ансимов, Андрей Багиров, Алёна Васильева, Сергей Карякин, Екатерина Преображенская, Артём Цуканов, Дарья Повереннова, Юлия Куварзина, Александр Занин (II), Глеб Иванов (III)

Описание:

Полицейские будни патрульно-постовой службы – это проверка документов, ежедневные летучки, а еще… погони, засады и перестрелки! День за днем господа полицейские охраняют жизнь и спокойствие мирных граждан небольшого провинциального города. У каждого из них свои мотивы для работы в полиции, свои мечты. Для кого-то это способ вырваться из провинции, для кого-то возможность продолжить династию, а кто-то делает карьеру. Но все они стоят на страже закона и порядка, всегда готовы прийти на помощь и сделать все зависящее, чтобы преступление не только было раскрыто, но и не повторилось вновь…

Качество: HDTVRip
Формат: MKV

Видео: XviD, ~ 1500 Кбит/с, 720x400
Аудио: AC3, 2 ch, 192 Кбит/с
скриншот  скриншот  скриншот  скриншот  

Общее
Полное имя : D:\Господа полицейские.2014.HDTVRip.Files-x\01.Господа полицейские.2014.HDTVRip.Files-x.avi
Формат : AVI
Формат/Информация : Audio Video Interleave
Размер файла : 535 Мбайт
Продолжительность : 44 м. 2 с.
Общий поток : 1698 Кбит/сек
Программа кодирования : VirtualDubMod 1.5.10.3 | www.virtualdub-fr.org || (build 2550/release)
Библиотека кодирования : VirtualDubMod build 2550/release

Видео
Идентификатор : 0
Формат : MPEG-4 Visual
Профиль формата : Advanced Simple@L5
Параметр BVOP формата : 1
Параметр QPel формата : Нет
Параметр GMC формата : Без точки перехода
Параметр матрицы формата : Выборочная
Идентификатор кодека : XVID
Идентификатор кодека/Подсказка : XviD
Продолжительность : 44 м. 2 с.
Битрейт : 1496 Кбит/сек
Ширина : 720 пикселей
Высота : 400 пикселей
Соотношение сторон : 16:9
Частота кадров : 25,000 кадров/сек
Цветовое пространство : YUV
Субдискретизация насыщенности : 4:2:0
Битовая глубина : 8 бит
Тип развёртки : Прогрессивная
Метод сжатия : С потерями
Бит/(Пиксели*Кадры) : 0.208
Размер потока : 471 Мбайт (88%)
Библиотека кодирования : XviD 73

Аудио
Идентификатор : 1
Формат : AC-3
Формат/Информация : Audio Coding 3
Расширение режима : CM (complete main)
Параметр Endianness формата : Big
Идентификатор кодека : 2000
Продолжительность : 44 м. 2 с.
Вид битрейта : Постоянный
Битрейт : 192 Кбит/сек
Каналы : 2 канала
Расположение каналов : Front: L R
Частота : 48,0 КГц
Частота кадров : 31,250 кадров/сек (1536 spf)
Метод сжатия : С потерями
Размер потока : 60,5 Мбайт (11%)
Выравнивание : Разделение по промежуткам
Продолжительность промежутка : 40 мс. (1,00 видеокадр)
Время предзагрузки промежутка : 500 мс.

Внимание! Раздача ведётся путём добавления новых серий; при каждом добавлении создаётся новый торрент. Чтобы начать докачку новой серии, пользователям необходимо сделать следующее:
(1) остановить скачивание,
(2) удалить старый торрент у себя из клиента (старые серии удалять не надо),
(3) скачать новый торрент и запустить его у себя в клиенте вместо старого, при этом указать клиенту путь в старую папку куда и должно происходить скачивание новых серий.
Ваш клиент при этом должен произвести хеширование (проверку) старой папки (если не производит сам - помогите ему сделать это), и будет докачивать только те серии которых у вас ещё нет. Старые серии при этом не удаляются, а продолжают раздаваться!
Eсли вы уже удалили старые серии, то предотвратить повторную закачку старых серий можно, отжав галочку в соответствующих местах при запуске нового торрента. По возможности, желательно не удалять старые серии как можно дольше чтобы релизёр не столько продолжал раздавать старые серии, а смог сконцентрироваться на новых.
pb.wtf



Скачать Господа полицейские через торрент http://img11.lostpic.net/2018/08/11/c0d8a5feeb90a4a443650918ffeacf3a.jpg Скачать фильм Господа полицейские через торрент бесплантно в хорошем качестве Описание: Полицейские будни патрульно-постовой службы – это проверка документов, ежедневные летучки, а еще… погони, засады и перестрелки! ... 10 10 4
Торрент: Зарегистрирован [2018-08-12 10:58] · скачан: 99 раз
Статус: √ проверено
Размер: 2.09 GB
Как cкачать? Как скачать Господа полицейские через торрент | qTorrent

% Раздел Тема Автор DL S | L
Наши сериалы [ 8.35 GB ] Господа полицейские / Серии: 1-4 из 4 [2018 HDTV 1080i] bober100 Скачать
1 | 0
Наши сериалы [ 2.09 GB ] Господа полицейские / Серии: 1-4 из 4 [2018 SATRip-AVC] aleksan55 Скачать
1 | 0
Наши сериалы [ 2.28 GB ] Господа полицейские / Серии: 1-4 из 4 [2018 SATRip] bober100 Скачать
1 | 0

28-11-2019 20:33  

Отключить всю рекламу на сайте

    Дорогой пользователь! Огромная просьба, поблагодарите релизера, оцените раздачу и оставьте свои комментарий, если Вы скачали Господа полицейские через торрент бесплатно! Внесите свою лепту в развитие PiratBit!
    Комментировать посты могут только пользователи прошедшие не сложную регистрацию
    Показать сообщения:    

    Господа полицейские через торрент
    Скачать бесплатно Господа полицейские
    Господа полицейские скачать торрент
    Господа полицейские смотреть онлайн
    Cкачать фильм Господа полицейские бесплатно
    Господа полицейские скачать торрент в хорошем качестве
    Господа полицейские смотреть онлайн бесплатно в хорошем качестве


    Вы не можете начинать темы
    Вы не можете отвечать на сообщения
    Вы не можете редактировать свои сообщения
    Вы не можете удалять свои сообщения
    Вы не можете голосовать в опросах
    Вы не можете прикреплять файлы к сообщениям
    Вы можете скачивать файлы