Ссылка на приватное зеркало нашего сайта всего за 1$. Внимание количество ограничено!!!

2 сезон

iTunes

iTunes

1

iTunes

iTunes

iTunes

WEBRip

iTunes

30
pack

Новость дня

ВАЖНО

!!Акция!!

Alien_RageХит недели

RePack

Horizon Zero Dawn

ИГРА 18+

pack

RePack

jed

!!Акция!!

Alien_Rage

RePack

fifa19

RePack

Assassins Creed: Odyssey

RePack

NEED FOR SPEED™ PAYBACK

4 сезон

9 сезон

Бесстыжие 9 сезон

Все сериалы

все сериалы на PB.wtf

RePack

FAR CRY 5
  

Дом смертельных тайн / La maison des secrets (Даг Кэмпбелл) [2018 г., Драма, WEB-DLRip, Любительский (многоголосый)] [Синема УС] pb.wtf

Дом смертельных тайн через торрент pb.wtf

Размер: 1.37 GB | Добавлен: 2 года 1 мес. назад | Торрент скачан:12 раз
Скачать  

11-08-2018 13:11 Дом смертельных тайн Скачать торрент  

Дом смертельных тайн / La maison des secrets
Год выпуска: 2018
Страна: США
Жанр: Драма
Продолжительность: 01:30:02
Перевод: Любительский (многоголосый) | Синема УС
Субтитры: Отсутствуют

Режиссер: Даг Кэмпбелл

В Ролях: Джордж Т. Вудс, Эддисон Агилера, Филип Бойд, Дайан Робин, Анджела Паттерсон, Виолет Хикс, Christopher Charles, Хэнк Гроувер, Патриция МакКормак, Орсон Чаплин

rating

Описание:
Молодая мать с дочерью заселяются в старинный дом и случайно узнают, что сорок лет назад рядом с этим домом при загадочных обстоятельствах была похищена маленькая девочка.

Качество: WEB-DLRip
Формат: AVI
Видео кодек: XviD
Аудио кодек: AC3
Видео: XviD, 720x400 , 23.9fps, 1780 Kbps
Аудио#1: AC3 , 2 ch , 48 kHz , 384 kbps
скриншот   скриншот   скриншот   скриншот  

Общее
Полное имя : D:House.of.Deadly.Secret.2018.P.WEB-DLRip.14OOMB.avi
Формат : AVI
Формат/Информация : Audio Video Interleave
Размер файла : 1,37 Гбайт
Продолжительность : 1 ч. 30 м.
Общий поток : 2173 Кбит/сек
Программа кодирования : VirtualDubMod 1.5.10.2 (build 2540/release)
Библиотека кодирования : VirtualDubMod build 2540/release

Видео
Идентификатор : 0
Формат : MPEG-4 Visual
Профиль формата : Advanced Simple@L5
Параметр BVOP формата : 2
Параметр QPel формата : Нет
Параметр GMC формата : Без точки перехода
Параметр матрицы формата : Выборочная
Идентификатор кодека : XVID
Идентификатор кодека/Подсказка : XviD
Продолжительность : 1 ч. 30 м.
Битрейт : 1780 Кбит/сек
Ширина : 720 пикселей
Высота : 400 пикселей
Соотношение сторон : 16:9
Частота кадров : 23,976 кадра/сек
Цветовое пространство : YUV
Субдискретизация насыщенности : 4:2:0
Битовая глубина : 8 бит
Тип развёртки : Прогрессивная
Метод сжатия : С потерями
Бит/(Пиксели*Кадры) : 0.258
Размер потока : 1,12 Гбайт (82%)
Библиотека кодирования : XviD 1.2.1 (UTC 2008-12-04)

Аудио
Идентификатор : 1
Формат : AC-3
Формат/Информация : Audio Coding 3
Расширение режима : CM (complete main)
Параметр Endianness формата : Big
Идентификатор кодека : 2000
Продолжительность : 1 ч. 30 м.
Вид битрейта : Постоянный
Битрейт : 384 Кбит/сек
Каналы : 2 канала
Расположение каналов : Front: L R
Частота : 48,0 КГц
Битовая глубина : 16 бит
Метод сжатия : С потерями
Размер потока : 247 Мбайт (18%)
Выравнивание : Разделение по промежуткам
Продолжительность промежутка : 42 мс. (1,00 видеокадр)
Время предзагрузки промежутка : 500 мс.

pb.wtf



Скачать Дом смертельных тайн через торрент http://pic1.kartinco.top/images/11/rlrt5.jpg Скачать фильм Дом смертельных тайн через торрент бесплантно в хорошем качестве Описание:Молодая мать с дочерью заселяются в старинный дом и случайно узнают, что сорок лет назад рядом с этим домом при загадочных ... 10 10 1
Торрент: Зарегистрирован [2018-08-11 13:11] · скачан: 12 раз
Статус: T временная
Размер: 1.37 GB
Как cкачать? Как скачать Дом смертельных тайн через торрент | qTorrent

% Раздел Тема Автор DL S | L
T Фильмы (мультфильмы) cо спонсором показа (Новинки AVI/MKV) [ 3.05 GB ] Дом смертельных тайн / House of Deadly Secrets / La maison des secrets [2018 WEB-DLRip] MVO [Синема УС] bober100 Скачать
1 | 0


Последний раз редактировалось: Скорпион1976 (2018-08-11 16:32), всего редактировалось 3 раз(а)

28-11-2019 20:33  

Отключить всю рекламу на сайте

    Дорогой пользователь! Огромная просьба, поблагодарите релизера, оцените раздачу и оставьте свои комментарий, если Вы скачали Дом смертельных тайн через торрент бесплатно! Внесите свою лепту в развитие PiratBit!
    Комментировать посты могут только пользователи прошедшие не сложную регистрацию
    Показать сообщения:    

    Дом смертельных тайн через торрент
    Скачать бесплатно Дом смертельных тайн
    Дом смертельных тайн скачать торрент
    Дом смертельных тайн смотреть онлайн
    Cкачать фильм Дом смертельных тайн бесплатно
    Дом смертельных тайн скачать торрент в хорошем качестве
    Дом смертельных тайн смотреть онлайн бесплатно в хорошем качестве


    Вы не можете начинать темы
    Вы не можете отвечать на сообщения
    Вы не можете редактировать свои сообщения
    Вы не можете удалять свои сообщения
    Вы не можете голосовать в опросах
    Вы не можете прикреплять файлы к сообщениям
    Вы можете скачивать файлы