Ссылка на приватное зеркало нашего сайта всего за 1$. Внимание количество ограничено!!!

2 сезон

iTunes

1 сезон

1

2 сезон

2 сезон

iTunes

1 сезон

RePack

30

Новинка

ВАЖНО

ИГРА 18+

pack

RePack

MK11
pack

Забери бонус

RePack

jed

!!Акция!!

Alien_Rage

RePack

fifa19

RePack

Assassins Creed: Odyssey

RePack

NEED FOR SPEED™ PAYBACK

4 сезон

9 сезон

Бесстыжие 9 сезон

Все сериалы

все сериалы на PB.wtf

RePack

FAR CRY 5
  

Кондор / Condor / Сезон: 1 / Серии: 1-10 из 10 (Эндрю МакКарти, Лоуренс Триллинг) [2018, Триллер, WEB-DLRip] MVO [LostFilm] pb.wtf

Кондор через торрент pb.wtf

Размер: 5.64 GB | Добавлен: 2 года 1 мес. назад | Торрент скачан:111 раз
Скачать  

12-08-2018 01:38 Кондор Скачать торрент  

Кондор / Condor Год выпуска: 2018
Страна: США
Жанр: Tриллер
Продолжительность: 00:53:33
Перевод: Профессиональный (многоголосый закадровый) | LostFilm
Субтитры: Отсутствуют

Режиссёр: Эндрю МакКарти, Лоуренс Триллинг

В ролях:

Макс Айронс, Лим Лубани, Уильям Хёрт, Кристен Хагер, Гейдж Грэм-Арбутнот, Кэтерин Каннингэм, Анхель Бунани, Мира Сорвино, Боб Бэлабан, Брендан Фрейзер и др.

Описание:

В основу шпионского сериала взят сценарий нашумевшего когда-то триллера «Три дня Кондора». Современная версия римейка повествует о карьере в ЦРУ молодого Джо Тернера. Он свято верит в служебные идеалы и усердно занимается анализом собранной информации. Однажды в его отделе происходят трагические события. Его коллеги подвергаются жестокому нападению и убийству. Главному герою приходится кардинально менять образ жизни, иначе ему грозит серьезная опасность. Вступая в борьбу с жестоким врагом, Джо узнает об угрозе масштабного теракта для миллионов невинных людей.

rating
Сэмпл: http://multi-up.com/1204696

Качество: WEB-DLRip
Формат: AVI

Видео: 720х360, 23.976 fps, XviD build 67, 1437 Kbps, 0.23 Bits/Pixel
Аудио 1: MP3, 48.0 KHz, 2 ch, 128 Кбит/с [Rus]
Аудио 2: MP3, 48.0 KHz, 2 ch, 128 Кбит/с [Eng]
01. What Loneliness / Какое одиночество
02. The Solution to All Problems / Решение всех проблем
03. A Good Patriot / Истинный патриот
04. Trapped in History / Пленники истории
05. From Innocence / По невиновности
06. No Such Thing / Не существует
07. Within a Dark Wood / В сумрачном лесу
08. A Question of Compromise / Вопрос компромисса
09. Death is the Harvest / Смерть - это жатва
"Чистый" кадр. Вступительная заставка и логотип LostFilm отсутствуют.

Rip by DriverV / NNM-Club
General
Complete name : Downloads\Кондор (сезон 1) Condor (2018) WEB-DLRip - LostFilm\Condor.S01E01.WEB-DLRip.Rus.Eng.DV.LostFilm.avi
Format : AVI
Format/Info : Audio Video Interleave
File size : 654 MiB
Duration : 53mn 33s
Overall bit rate : 1 707 Kbps
Writing application : VirtualDubModRus 1.5.10.2 (build 2542/release)
Writing library : VirtualDubMod build 2542/release
Video #0
ID : 0
Format : MPEG-4 Visual
Format profile : Advanced Simple@L5
Format settings, BVOP : 2
Format settings, QPel : No
Format settings, GMC : No warppoints
Format settings, Matrix : Default (H.263)
Codec ID : XVID
Codec ID/Hint : XviD
Duration : 53mn 33s
Bit rate : 1 437 Kbps
Width : 720 pixels
Height : 360 pixels
Display aspect ratio : 2.000
Frame rate : 23.976 fps
Color space : YUV
Chroma subsampling : 4:2:0
Bit depth : 8 bits
Scan type : Progressive
Compression mode : Lossy
Bits/(Pixel*Frame) : 0.231
Stream size : 550 MiB (84%)
Writing library : XviD 67
Audio #1
ID : 1
Format : MPEG Audio
Format version : Version 1
Format profile : Layer 3
Mode : Joint stereo
Mode extension : MS Stereo
Codec ID : 55
Codec ID/Hint : MP3
Duration : 53mn 33s
Bit rate mode : Constant
Bit rate : 128 Kbps
Channel(s) : 2 channels
Sampling rate : 48.0 KHz
Compression mode : Lossy
Stream size : 49.0 MiB (7%)
Alignment : Aligned on interleaves
Interleave, duration : 42 ms (1.00 video frame)
Interleave, preload duration : 504 ms
Audio #2
ID : 2
Format : MPEG Audio
Format version : Version 1
Format profile : Layer 3
Mode : Joint stereo
Mode extension : MS Stereo
Codec ID : 55
Codec ID/Hint : MP3
Duration : 53mn 33s
Bit rate mode : Constant
Bit rate : 128 Kbps
Channel(s) : 2 channels
Sampling rate : 48.0 KHz
Compression mode : Lossy
Stream size : 49.0 MiB (7%)
Alignment : Aligned on interleaves
Interleave, duration : 42 ms (1.00 video frame)
Interleave, preload duration : 504 ms
скриншот   скриншот   скриншот   скриншот   скриншот  
Когда раздача ведётся путём добавления новых серий, при каждом добавлении создётся новый торрент. Чтобы начать докачку новой серии, пользователям необходимо сделать следующее:
(1) остановить скачивание,
(2) удалить старый торрент у себя из клиента (старые серии удалять не надо),
(3) скачать новый торрент и запустить его у себя в клиенте вместо старого, при этом указать клиенту путь в старую папку, куда и должно происходить скачивание новых серий.
Ваш клиент при этом должен произвести хеширование (проверку) старой папки (если не производит сам - помогите ему сделать это), и будет докачивать только те серии, которых у вас ещё нет. Старые серии при этом не удаляются, а продолжают раздаваться!
Eсли вы уже удалили старые серии, то предотвратить повторную закачку старых серий можно, отжав галочку в соответсвующих местах при запуске нового торрента. По возможности, желательно не удалять старые серии как можно дольше, чтобы релизёр не столько продолжал раздавать старые серии, а смог сконцентрироваться на новых.
pb.wtf



Скачать Кондор через торрент https://a.radikal.ru/a15/1807/dd/0e2f9681cbf8.jpg Скачать фильм Кондор через торрент бесплантно в хорошем качестве Описание: В основу шпионского сериала взят сценарий нашумевшего когда-то триллера «Три дня Кондора». Современная римейка повествует ... 10 10 3
Торрент: Зарегистрирован [2018-10-04 03:20] · скачан: 111 раз
Статус: √ проверено
Размер: 5.64 GB
Как cкачать? Как скачать Кондор через торрент | qTorrent

% Раздел Тема Автор DL S | L
Зарубежные сериалы [ 7.1 GB ] Кондор / Condor / Сезон: 1 / Серии: 1-10 из 10 [2018 WEBRip] [MVO] [Jaskier] killermax2013 Скачать
1 | 0
Зарубежные сериалы [ 22.75 GB ] Кондор / Condor / Сезон: 1 / Серии: 1-10 из 10 [2018 WEB-DL 1080p] MVO [LostFilm] bober100 Скачать
2 | 0
Зарубежные сериалы [ 17.16 GB ] Кондор / Condor / Сезон: 1 / Серии: 1-10 из 10 [2018 WEB-DL 720p] [DVO] + [Original] killermax2013 Скачать
1 | 0
Зарубежные сериалы [ 16.92 GB ] Кондор / Condor / Сезон: 1 / Серии: 1-10 из 10 [2018 WEBRip 720p] MVO [Jaskier] bober100 Скачать
1 | 0

28-11-2019 20:33  

Отключить всю рекламу на сайте

    Дорогой пользователь! Огромная просьба, поблагодарите релизера, оцените раздачу и оставьте свои комментарий, если Вы скачали Кондор через торрент бесплатно! Внесите свою лепту в развитие PiratBit!
    Комментировать посты могут только пользователи прошедшие не сложную регистрацию
    Показать сообщения:    

    Кондор через торрент
    Скачать бесплатно Кондор
    Кондор скачать торрент
    Кондор смотреть онлайн
    Cкачать фильм Кондор бесплатно
    Кондор скачать торрент в хорошем качестве
    Кондор смотреть онлайн бесплатно в хорошем качестве


    Вы не можете начинать темы
    Вы не можете отвечать на сообщения
    Вы не можете редактировать свои сообщения
    Вы не можете удалять свои сообщения
    Вы не можете голосовать в опросах
    Вы не можете прикреплять файлы к сообщениям
    Вы можете скачивать файлы