Marvel's Avengers Deluxe Edition (супер цена) 159р. Внимание количество ограничено!!!

2 сезон

iTunes

iTunes

1

iTunes

iTunes

iTunes

WEBRip

iTunes

30
pack

Новость дня

ВАЖНО

!!Акция!!

Alien_RageХит недели

RePack

Horizon Zero Dawn

ИГРА 18+

pack

RePack

jed

!!Акция!!

Alien_Rage

RePack

fifa19

RePack

Assassins Creed: Odyssey

RePack

NEED FOR SPEED™ PAYBACK

4 сезон

9 сезон

Бесстыжие 9 сезон

Все сериалы

все сериалы на PB.wtf

RePack

FAR CRY 5
  

Дом смертельных тайн / House of Deadly Secrets / La maison des secrets (Даг Кэмпбелл) [2018, Драма, WEB-DLRip] MVO [Синема УС] pb.wtf

Дом смертельных тайн через торрент pb.wtf

Размер: 3.05 GB | Добавлен: 2 года 1 мес. назад | Торрент скачан:12 раз
Скачать  

12-08-2018 09:48 Дом смертельных тайн Скачать торрент  

Дом смертельных тайн / House of Deadly Secrets / La maison des secrets
Год выпуска: 2018
Страна: США
Жанр: Драма
Продолжительность: 01:30:02
Перевод: Любительский (многоголосый) | Синема УС
Субтитры: Отсутствуют

Режиссер: Даг Кэмпбелл

rating

В Ролях:

Джордж Т. Вудс, Эддисон Агилера, Филип Бойд, Дайан Робин, Анджела Паттерсон, Виолет Хикс, Christopher Charles, Хэнк Гроувер, Патриция МакКормак, Орсон Чаплин

Описание:

Молодая мать с дочерью заселяются в старинный дом и случайно узнают, что сорок лет назад рядом с этим домом при загадочных обстоятельствах была похищена маленькая девочка.

Качество: WEB-DL 720p
Формат: MKV

Видео: h.264, 4 470 kb/s, 1280x720
Аудио#1: Русский, (AC3, 2 ch, 384 Кбит/с)
скриншот  скриншот  скриншот  

Общее
Уникальный идентификатор : 248403001528910678798518536722550559423 (0xBAE0AD8A54D7015E850C3CEF521712BF)
Полное имя : D:\House.of.Deadly.Secret.2018.P.WEB-DL.72Op_KOSHARA.mkv
Формат : Matroska
Версия формата : Version 2
Размер файла : 3,05 Гбайт
Продолжительность : 1 ч. 30 м.
Режим общего битрейта : Переменный
Общий поток : 4856 Кбит/сек
Дата кодирования : UTC 2018-08-10 19:31:59
Программа кодирования : mkvmerge v8.3.0 ('Over the Horizon') 64bit
Библиотека кодирования : libebml v1.3.1 + libmatroska v1.4.2

Видео
Идентификатор : 1
Формат : AVC
Формат/Информация : Advanced Video Codec
Профиль формата : High@L4.1
Параметр CABAC формата : Да
Параметр RefFrames формата : 4 кадра
Идентификатор кодека : V_MPEG4/ISO/AVC
Продолжительность : 1 ч. 30 м.
Вид битрейта : Переменный
Битрейт : 4470 Кбит/сек
Максимальный битрейт : 5000 Кбит/сек
Ширина : 1280 пикселей
Высота : 720 пикселей
Соотношение сторон : 16:9
Режим частоты кадров : Постоянный
Частота кадров : 23,976 (24000/1001) кадра/сек
Стандарт вещания : Component
Цветовое пространство : YUV
Субдискретизация насыщенности : 4:2:0
Битовая глубина : 8 бит
Тип развёртки : Прогрессивная
Бит/(Пиксели*Кадры) : 0.198
Размер потока : 2,75 Гбайт (90%)
Default : Да
Forced : Нет
Цветовой диапазон : Limited
Основные цвета : BT.709
Характеристики трансфера : BT.709
Коэффициенты матрицы : BT.709

Аудио
Идентификатор : 2
Формат : AC-3
Формат/Информация : Audio Coding 3
Расширение режима : CM (complete main)
Параметр Endianness формата : Big
Идентификатор кодека : A_AC3
Продолжительность : 1 ч. 30 м.
Вид битрейта : Постоянный
Битрейт : 384 Кбит/сек
Каналы : 2 канала
Расположение каналов : Front: L R
Частота : 48,0 КГц
Частота кадров : 31,250 кадров/сек (1536 spf)
Метод сжатия : С потерями
Размер потока : 247 Мбайт (8%)
Default : Да
Forced : Нет

pb.wtf



Скачать Дом смертельных тайн через торрент http://pic1.kartinco.top/images/11/rlrt5.jpg Скачать фильм Дом смертельных тайн через торрент бесплантно в хорошем качестве Описание:Молодая мать с дочерью заселяются в старинный дом и случайно узнают, что сорок лет назад рядом с этим домом при загадочных ... 9.7 10 3
Торрент: Зарегистрирован [2018-08-12 09:48] · скачан: 12 раз
Статус: T временная
Размер: 3.05 GB
Как cкачать? Как скачать Дом смертельных тайн через торрент | qTorrent

28-11-2019 20:33  

Отключить всю рекламу на сайте

    Дорогой пользователь! Огромная просьба, поблагодарите релизера, оцените раздачу и оставьте свои комментарий, если Вы скачали Дом смертельных тайн через торрент бесплатно! Внесите свою лепту в развитие PiratBit!
    Комментировать посты могут только пользователи прошедшие не сложную регистрацию
    Показать сообщения:    

    Дом смертельных тайн через торрент
    Скачать бесплатно Дом смертельных тайн
    Дом смертельных тайн скачать торрент
    Дом смертельных тайн смотреть онлайн
    Cкачать фильм Дом смертельных тайн бесплатно
    Дом смертельных тайн скачать торрент в хорошем качестве
    Дом смертельных тайн смотреть онлайн бесплатно в хорошем качестве


    Вы не можете начинать темы
    Вы не можете отвечать на сообщения
    Вы не можете редактировать свои сообщения
    Вы не можете удалять свои сообщения
    Вы не можете голосовать в опросах
    Вы не можете прикреплять файлы к сообщениям
    Вы можете скачивать файлы