Ссылка на приватное зеркало всего за 1$. Внимание количество ограничено!!!

iTunes

1+1

iTunes

мы

WEB-DL

1

iTunes

Чернобыль

iTunes

Ральф против интернета

Лицензия

ПШазам

Лицензия

Оно 2

Лицензия

30
pack

Вам бонус

ВАЖНО

!!Акция!!

Alien_RageХит недели

RePack

Resident Evil 21

ИГРА 18+

pack

RePack

jed

!!Акция!!

Alien_Rage

RePack

fifa19

RePack

Assassins Creed: Odyssey

RePack

NEED FOR SPEED™ PAYBACK

3 сезон

9 сезон

Бесстыжие 9 сезон

Все сериалы

все сериалы на PB.wtf

RePack

FAR CRY 5
Ребята, катастрофически не хватает 1900р. для оплаты серверов за Октябрь (всвязи с блокировками трафик упал в 3 раза), 1-2р., выручайте.
  

Точка отрыва / Action Point (Тим Киркби) [2018, комедия, BDRip-AVC] DUB [Лицензия] - ExKinoRay pb.wtf

Точка отрыва через торрент pb.wtf

Размер: 1.76 GB | Добавлен: 1 год 4 мес. назад | Торрент скачан:463 раза
Скачать  

12-08-2018 12:24 Точка отрыва Скачать торрент  

Информация о фильме
Название: Точка отрыва
Оригинальное название: Action Point
Год выпуска: 2018
Жанр: Комедия
Режиссер: Тим Киркби
В ролях: Джонни Ноксвилл, Сьюзэн Йигли, Крис Понтиус, Бригитт Ланди-Пейн, Джонни Пембертон, Дэн Баккедаль, Элинор Вортингтон-Кокс, Дэна Шик, Джошуа Хувер, Коннер МакВикер

Описание:
История безрассудного парня, который решает претворить в жизнь свой амбициозный проект. Собрав команду таких же сумасбродов, он конструирует и открывает совершенно особенный парк развлечений. К какой-то катастрофе это приведет?

rating

Страна: США
Студия: Gerber Pictures, Paramount Pictures
Продолжительность: 01:24:37
Перевод: Дублированный | Лицензия BD EUR
Субтитры: Русские (полные), английские (полные, SDH)

Формат: MKV
Качество: BDRip-AVC
Видео: MPEG-4 AVC, 1024x426 (2.40:1), 23.976 fps, 2088 Kbps, 0.200 bit/pixel
Аудио 1: 48 kHz, AC3, 5/1, 448 Kbps | RUS |
Аудио 2: 48 kHz, AC3, 5/1, 448 Kbps | Оригинал | ENG |
General
Unique ID : 184672610838295267767834576905413022563 (0x8AEEA6AF496BFA2AA58AC8083D5F5363)
Complete name : D:\Action.Point.2018.Dub.BDRip.AVC.ExKinoRay.mkv
Format : Matroska
Format version : Version 2
File size : 1.76 GiB
Duration : 1 h 24 min
Overall bit rate : 2 979 kb/s
Movie name : Action Point 2018 from ExKinoRay
Encoded date : UTC 2018-08-12 12:06:04
Writing application : mkvmerge v5.6.0 ('Kenya Kane') built on May 27 2012 16:44:04
Writing library : libebml v1.2.3 + libmatroska v1.3.0

Video
ID : 1
Format : AVC
Format/Info : Advanced Video Codec
Format profile : High@L4.1
Format settings, CABAC : Yes
Format settings, ReFrames : 11 frames
Codec ID : V_MPEG4/ISO/AVC
Duration : 1 h 24 min
Bit rate : 2 088 kb/s
Width : 1 024 pixels
Height : 426 pixels
Display aspect ratio : 2.40:1
Frame rate mode : Constant
Frame rate : 23.976 (23976/1000) FPS
Color space : YUV
Chroma subsampling : 4:2:0
Bit depth : 8 bits
Scan type : Progressive
Bits/(Pixel*Frame) : 0.200
Stream size : 1.20 GiB (68%)
Title : Enigma
Writing library : x264 core 152 r2851 ba24899
Encoding settings : cabac=1 / ref=11 / deblock=1:-2:-2 / analyse=0x3:0x113 / me=umh / subme=10 / psy=1 / psy_rd=1.00:0.10 / mixed_ref=1 / me_range=32 / chroma_me=1 / trellis=2 / 8x8dct=1 / cqm=0 / deadzone=21,11 / fast_pskip=0 / chroma_qp_offset=-3 / threads=12 / lookahead_threads=3 / sliced_threads=0 / nr=0 / decimate=0 / interlaced=0 / bluray_compat=0 / constrained_intra=0 / bframes=12 / b_pyramid=2 / b_adapt=2 / b_bias=0 / direct=3 / weightb=1 / open_gop=0 / weightp=2 / keyint=240 / keyint_min=23 / scenecut=40 / intra_refresh=0 / rc=2pass / mbtree=0 / bitrate=2088 / ratetol=1.0 / qcomp=0.60 / qpmin=0 / qpmax=51 / qpstep=4 / cplxblur=20.0 / qblur=0.5 / ip_ratio=1.40 / pb_ratio=1.30 / aq=1:1.00
Language : English
Default : Yes
Forced : No
Color range : Limited
Color primaries : BT.709
Transfer characteristics : BT.709
Matrix coefficients : BT.709

Audio #1
ID : 2
Format : AC-3
Format/Info : Audio Coding 3
Mode extension : CM (complete main)
Format settings, Endianness : Big
Codec ID : A_AC3
Duration : 1 h 24 min
Bit rate mode : Constant
Bit rate : 448 kb/s
Channel(s) : 6 channels
Channel positions : Front: L C R, Side: L R, LFE
Sampling rate : 48.0 kHz
Frame rate : 31.250 FPS (1536 spf)
Compression mode : Lossy
Stream size : 271 MiB (15%)
Title : Dub (License)
Language : Russian
Default : Yes
Forced : No

Audio #2
ID : 3
Format : AC-3
Format/Info : Audio Coding 3
Mode extension : CM (complete main)
Format settings, Endianness : Big
Codec ID : A_AC3
Duration : 1 h 24 min
Bit rate mode : Constant
Bit rate : 448 kb/s
Channel(s) : 6 channels
Channel positions : Front: L C R, Side: L R, LFE
Sampling rate : 48.0 kHz
Frame rate : 31.250 FPS (1536 spf)
Compression mode : Lossy
Stream size : 271 MiB (15%)
Language : English
Default : No
Forced : No

Text #1
ID : 4
Format : UTF-8
Codec ID : S_TEXT/UTF8
Codec ID/Info : UTF-8 Plain Text
Title : Full
Language : Russian
Default : No
Forced : No

Text #2
ID : 5
Format : UTF-8
Codec ID : S_TEXT/UTF8
Codec ID/Info : UTF-8 Plain Text
Title : Full
Language : English
Default : No
Forced : No

Text #3
ID : 6
Format : UTF-8
Codec ID : S_TEXT/UTF8
Codec ID/Info : UTF-8 Plain Text
Title : SDH
Language : English
Default : No
Forced : No

Menu
00:00:00.000 : en:Chapter 1
00:13:22.218 : en:Chapter 2
00:20:20.219 : en:Chapter 3
00:27:39.867 : en:Chapter 4
00:36:38.446 : en:Chapter 5
00:44:15.528 : en:Chapter 6
00:51:59.408 : en:Chapter 7
00:57:39.539 : en:Chapter 8
01:05:17.038 : en:Chapter 9
01:14:09.236 : en:Chapter 10
Релиз от:

Автор релиза: pb.wtf



Скачать Точка отрыва через торрент https://b.radikal.ru/b08/1808/9c/927f169cf71c.png Скачать фильм Точка отрыва через торрент бесплантно в хорошем качестве Описание: История безрассудного парня, который решает претворить в жизнь свой амбициозный проект. Собрав команду таких же сумасбродов, он ... 8.7 10 11
Info! Золотая раздача, скачанное не засчитывается.
Торрент: Зарегистрирован [2018-08-12 12:24] · скачан: 463 раз
Статус: √ проверено
Размер: 1.76 GB
Как cкачать? Как скачать Точка отрыва через торрент | qTorrent

28-11-2019 20:33  

Отключить всю рекламу на сайте

12-08-2018 16:47 Точка отрыва Скачать торрент  

Как такой бред можно смотреть?20-ти минут хватило,удалил эту дичь pb.wtf



    Дорогой пользователь! Огромная просьба, поблагодарите релизера, оцените раздачу и оставьте свои комментарий, если Вы скачали Точка отрыва через торрент бесплатно! Внесите свою лепту в развитие PiratBit!
    Комментировать посты могут только пользователи прошедшие не сложную регистрацию
    Показать сообщения:    

    Точка отрыва через торрент
    Скачать бесплатно Точка отрыва
    Точка отрыва скачать торрент
    Точка отрыва смотреть онлайн
    Cкачать фильм Точка отрыва бесплатно
    Точка отрыва скачать торрент в хорошем качестве
    Точка отрыва смотреть онлайн бесплатно в хорошем качестве


    Вы не можете начинать темы
    Вы не можете отвечать на сообщения
    Вы не можете редактировать свои сообщения
    Вы не можете удалять свои сообщения
    Вы не можете голосовать в опросах
    Вы не можете прикреплять файлы к сообщениям
    Вы можете скачивать файлы