Ссылка на приватное зеркало нашего сайта всего за 1$. Внимание количество ограничено!!!

2 сезон

iTunes

iTunes

1

iTunes

iTunes

iTunes

WEBRip

iTunes

30
pack

Забери бонус

ВАЖНО

!!Акция!!

Alien_RageХит недели

RePack

RESIDENT EVIL 3: NEMESIS REMAKE

ИГРА 18+

pack

RePack

jed

!!Акция!!

Alien_Rage

RePack

fifa19

RePack

Assassins Creed: Odyssey

RePack

NEED FOR SPEED™ PAYBACK

4 сезон

9 сезон

Бесстыжие 9 сезон

Все сериалы

все сериалы на PB.wtf

RePack

FAR CRY 5
  

Истории за гранью безумия / Tales Beyond Madness (Дэймон Паккард) [2018, Ужасы, WEB-DL 720p] MVO ["Синема УС"] pb.wtf

Истории за гранью безумия через торрент pb.wtf

Размер: 3.17 GB | Добавлен: 2 года 1 мес. назад | Торрент скачан:74 раза
Скачать  

12-08-2018 13:07 Истории за гранью безумия Скачать торрент  

Истории за гранью безумия / Tales Beyond MadnessГод выпуска: 2018
Страна: США
Жанр: Ужасы
Продолжительность: 01:37:44
Перевод: Любительский (многоголосый) | "Синема УС"
Субтитры: отсутствуют

Режиссер: Дэймон Паккард

rating

В ролях:

Лэнс Маса

Описание:

Альманах из нескольких историй, от которых у вас в буквальном смысле снесёт крышу. Вы думаете, что видели всё? Такой лютой дичи вы точно не видели никогда. А проводником в это безумие выступит САМ Дэймон Паккард.

Качество: WEB-DL 720p
Формат: MKV

Видео: h.264, 4 258 Кбит/с, 1280x720
Аудио: Русский, (AC3, 2 ch, 384 Кбит/с)
скриншот  скриншот  скриншот  

Общее
Уникальный идентификатор : 217133938458734355144498145147289846666 (0xA35A79B3F2BB4C39B1EF5E2C54EBC38A)
Полное имя : D:\Tales Beyond Madness.2018.Pk.WEB-DL.72Op.mkv
Формат : Matroska
Версия формата : Version 2
Размер файла : 3,17 Гбайт
Продолжительность : 1 ч. 37 м.
Режим общего битрейта : Переменный
Общий поток : 4643 Кбит/сек
Дата кодирования : UTC 2018-08-10 02:04:40
Программа кодирования : mkvmerge v8.3.0 ('Over the Horizon') 64bit
Библиотека кодирования : libebml v1.3.1 + libmatroska v1.4.2

Видео
Идентификатор : 1
Формат : AVC
Формат/Информация : Advanced Video Codec
Профиль формата : High@L4.1
Параметр CABAC формата : Да
Параметр RefFrames формата : 4 кадра
Идентификатор кодека : V_MPEG4/ISO/AVC
Продолжительность : 1 ч. 37 м.
Вид битрейта : Переменный
Битрейт : 4258 Кбит/сек
Максимальный битрейт : 5000 Кбит/сек
Ширина : 1280 пикселей
Высота : 720 пикселей
Соотношение сторон : 16:9
Режим частоты кадров : Постоянный
Частота кадров : 23,976 (24000/1001) кадра/сек
Стандарт вещания : Component
Цветовое пространство : YUV
Субдискретизация насыщенности : 4:2:0
Битовая глубина : 8 бит
Тип развёртки : Прогрессивная
Бит/(Пиксели*Кадры) : 0.189
Размер потока : 2,84 Гбайт (90%)
Default : Да
Forced : Нет
Цветовой диапазон : Limited
Основные цвета : BT.709
Характеристики трансфера : BT.709
Коэффициенты матрицы : BT.709

Аудио
Идентификатор : 2
Формат : AC-3
Формат/Информация : Audio Coding 3
Расширение режима : CM (complete main)
Параметр Endianness формата : Big
Идентификатор кодека : A_AC3
Продолжительность : 1 ч. 37 м.
Вид битрейта : Постоянный
Битрейт : 384 Кбит/сек
Каналы : 2 канала
Расположение каналов : Front: L R
Частота : 48,0 КГц
Частота кадров : 31,250 кадров/сек (1536 spf)
Метод сжатия : С потерями
Размер потока : 268 Мбайт (8%)
Default : Да
Forced : Нет

pb.wtf



Скачать Истории за гранью безумия через торрент http://img11.lostpic.net/2018/08/12/cb1c309aec5758923d818de6bc6175a1.jpg Скачать фильм Истории за гранью безумия через торрент бесплантно в хорошем качестве Описание: Альманах из нескольких историй, от которых у вас в буквальном смысле снесёт крышу. Вы думаете, что видели всё? Такой лютой дичи ... 7 10 4
Торрент: Зарегистрирован [2018-08-12 13:07] · скачан: 74 раз
Статус: T временная
Размер: 3.17 GB
Как cкачать? Как скачать Истории за гранью безумия через торрент | qTorrent

% Раздел Тема Автор DL S | L
T Фильмы (мультфильмы) cо спонсором показа (Новинки AVI/MKV) [ 1.37 GB ] Истории за гранью безумия / Tales Beyond Madness [2018 WEB-DLRip] MVO ["Синема УС"] bober100 Скачать
1 | 0

28-11-2019 20:33  

Отключить всю рекламу на сайте

12-08-2018 15:27 Истории за гранью безумия Скачать торрент  

шедевр pb.wtf



12-08-2018 16:48 Истории за гранью безумия Скачать торрент  

это просто дно,проходим мимоpb.wtf



13-08-2018 13:44 Истории за гранью безумия Скачать торрент  

хватило на 10 минут.днищеpb.wtf



    Дорогой пользователь! Огромная просьба, поблагодарите релизера, оцените раздачу и оставьте свои комментарий, если Вы скачали Истории за гранью безумия через торрент бесплатно! Внесите свою лепту в развитие PiratBit!
    Комментировать посты могут только пользователи прошедшие не сложную регистрацию
    Показать сообщения:    

    Истории за гранью безумия через торрент
    Скачать бесплатно Истории за гранью безумия
    Истории за гранью безумия скачать торрент
    Истории за гранью безумия смотреть онлайн
    Cкачать фильм Истории за гранью безумия бесплатно
    Истории за гранью безумия скачать торрент в хорошем качестве
    Истории за гранью безумия смотреть онлайн бесплатно в хорошем качестве


    Вы не можете начинать темы
    Вы не можете отвечать на сообщения
    Вы не можете редактировать свои сообщения
    Вы не можете удалять свои сообщения
    Вы не можете голосовать в опросах
    Вы не можете прикреплять файлы к сообщениям
    Вы можете скачивать файлы