Ссылка на приватное зеркало всего за 1$. Внимание количество ограничено!!!

OK

1+1

iTunes

мы

OK

1

WEB-DLRip

Джокер

Пифагор

Ведьмак / The Witcher сериал

iTunes

ПШазам

ОК

Оно 2

iTunes

30
pack

Вам бонус

ВАЖНО

!!Акция!!

Alien_RageХит недели

RePack

Resident Evil 21

ИГРА 18+

pack

RePack

jed

RePack

fifa19

RePack

Assassins Creed: Odyssey

RePack

NEED FOR SPEED™ PAYBACK

4 сезон

9 сезон

Бесстыжие 9 сезон

Все сериалы

все сериалы на PB.wtf

RePack

FAR CRY 5
  

Муравьед / Aardvark (Брайан Шоф) [2017, Драма, WEB-DL 720p] MVO ["Синема УС"] pb.wtf

Муравьед через торрент pb.wtf

Размер: 3.14 GB | Добавлен: 1 год 5 мес. назад | Торрент скачан:11 раз
Скачать  

12-08-2018 13:24 Муравьед Скачать торрент  

Муравьед / Aardvark
Год выпуска: 2017
Страна: США
Жанр: Драма
Продолжительность: 01:32:29
Перевод: Любительский (многоголосый) | "Синема УС"
Субтитры: отсутствуют

Режиссер: Брайан Шоф

rating

В ролях:

Закари Куинто, Дженни Слейт, Шейла Ванд, Джон Хэмм, Тоня Пинкинс, Дэйл Соулс, Марин Айрлэнд, Питер Гроц, Хасинто Тарас Риддик, Стивен Шнецер

Описание:

Психотерапевт Эмили Милбёртон берёт нового клиента, Джоша Нормана. Мужчина страдает от галлюцинаций и видит в докторе очередную надежду на исцеление. Джош влюбляется в Эмили, однако не может быть уверенным в реальности этих отношений: всё может оказаться лишь галлюцинацией. Тем временем Эмили начинает отношения с братом пациента, телевизионным актёром Крейгом, и обнаруживает, что у «здорового» брата гораздо больше проблем.

Качество: WEB-DL 720p
Формат: MKV

Видео: h.264, 4 431 kb/s, 1280x534
Аудио#1: Русский, (AC3, 2 ch, 384 Кбит/с)
скриншот  скриншот  скриншот  

Общее
Уникальный идентификатор : 204787928977157643807818849030093065147 (0x9A10B87080072F9F9F65B300B87ACBBB)
Полное имя : D:\Aardvark.2017.P.WEB-DL.72Op_KOSHARA.mkv
Формат : Matroska
Версия формата : Version 2
Размер файла : 3,14 Гбайт
Продолжительность : 1 ч. 33 м.
Режим общего битрейта : Переменный
Общий поток : 4817 Кбит/сек
Дата кодирования : UTC 2018-08-10 03:51:11
Программа кодирования : mkvmerge v8.3.0 ('Over the Horizon') 64bit
Библиотека кодирования : libebml v1.3.1 + libmatroska v1.4.2

Видео
Идентификатор : 1
Формат : AVC
Формат/Информация : Advanced Video Codec
Профиль формата : High@L4.1
Параметр CABAC формата : Да
Параметр RefFrames формата : 4 кадра
Идентификатор кодека : V_MPEG4/ISO/AVC
Продолжительность : 1 ч. 33 м.
Вид битрейта : Переменный
Битрейт : 4431 Кбит/сек
Максимальный битрейт : 5000 Кбит/сек
Ширина : 1280 пикселей
Высота : 534 пикселя
Соотношение сторон : 2,40:1
Режим частоты кадров : Постоянный
Частота кадров : 23,976 (24000/1001) кадра/сек
Стандарт вещания : Component
Цветовое пространство : YUV
Субдискретизация насыщенности : 4:2:0
Битовая глубина : 8 бит
Тип развёртки : Прогрессивная
Бит/(Пиксели*Кадры) : 0.265
Размер потока : 2,83 Гбайт (90%)
Default : Да
Forced : Нет
Цветовой диапазон : Limited
Основные цвета : BT.709
Характеристики трансфера : BT.709
Коэффициенты матрицы : BT.709

Аудио
Идентификатор : 2
Формат : AC-3
Формат/Информация : Audio Coding 3
Расширение режима : CM (complete main)
Параметр Endianness формата : Big
Идентификатор кодека : A_AC3
Продолжительность : 1 ч. 33 м.
Вид битрейта : Постоянный
Битрейт : 384 Кбит/сек
Каналы : 2 канала
Расположение каналов : Front: L R
Частота : 48,0 КГц
Частота кадров : 31,250 кадров/сек (1536 spf)
Метод сжатия : С потерями
Размер потока : 256 Мбайт (8%)
Default : Да
Forced : Нет

pb.wtf



Скачать Муравьед через торрент http://img11.lostpic.net/2018/08/12/b6aba94089430024228904ae9105386d.jpg Скачать фильм Муравьед через торрент бесплантно в хорошем качестве Описание: Психотерапевт Эмили Милбёртон берёт нового клиента, Джоша Нормана. Мужчина страдает от галлюцинаций и видит в докторе очередную ... 10 10 3
Торрент: Зарегистрирован [2018-08-12 13:24] · скачан: 11 раз
Статус: T временная
Размер: 3.14 GB
Как cкачать? Как скачать Муравьед через торрент | qTorrent

% Раздел Тема Автор DL S | L
T Фильмы (мультфильмы) cо спонсором показа (Новинки AVI/MKV) [ 1.37 GB ] Муравьед / Aardvark [2017 WEB-DLRip] MVO ["Синема УС"] bober100 Скачать
1 | 0

28-11-2019 20:33  

Отключить всю рекламу на сайте

    Дорогой пользователь! Огромная просьба, поблагодарите релизера, оцените раздачу и оставьте свои комментарий, если Вы скачали Муравьед через торрент бесплатно! Внесите свою лепту в развитие PiratBit!
    Комментировать посты могут только пользователи прошедшие не сложную регистрацию
    Показать сообщения:    

    Муравьед через торрент
    Скачать бесплатно Муравьед
    Муравьед скачать торрент
    Муравьед смотреть онлайн
    Cкачать фильм Муравьед бесплатно
    Муравьед скачать торрент в хорошем качестве
    Муравьед смотреть онлайн бесплатно в хорошем качестве


    Вы не можете начинать темы
    Вы не можете отвечать на сообщения
    Вы не можете редактировать свои сообщения
    Вы не можете удалять свои сообщения
    Вы не можете голосовать в опросах
    Вы не можете прикреплять файлы к сообщениям
    Вы можете скачивать файлы