Marvel's Avengers Deluxe Edition (супер цена) 159р. Внимание количество ограничено!!!

2 сезон

iTunes

iTunes

1

iTunes

iTunes

iTunes

WEBRip

iTunes

30
pack

Новость дня

ВАЖНО

!!Акция!!

Alien_RageХит недели

RePack

Horizon Zero Dawn

ИГРА 18+

pack

RePack

jed

!!Акция!!

Alien_Rage

RePack

fifa19

RePack

Assassins Creed: Odyssey

RePack

NEED FOR SPEED™ PAYBACK

4 сезон

9 сезон

Бесстыжие 9 сезон

Все сериалы

все сериалы на PB.wtf

RePack

FAR CRY 5
  

Илиза: Старейшина Миллениал / Iliza: Elder Millennial (Стив Пэли) [2018, комедия, WEB-DL 720p] MVO ["Синема УС"] pb.wtf

Илиза: Старейшина Миллениал через торрент pb.wtf

Размер: 2.57 GB | Добавлен: 2 года 1 мес. назад | Торрент скачан:58 раз
Скачать  

12-08-2018 13:58 Илиза: Старейшина Миллениал Скачать торрент  

Илиза: Старейшина Миллениал / Iliza: Elder Millennial
Год выпуска: 2018
Страна: США
Жанр: комедия
Продолжительность: 01:15:50
Перевод: Любительский (многоголосый) | "Синема УС"
Субтитры: отсутствуют

Режиссер: Стив Пэли

rating

В ролях:

Хантер Хилл, Илиза Шлезингер

Описание:

Известный комик Илиза Шлезингер погружается в бесспорные истины о жизни в возрасте 35 лет.

Качество: WEB-DL 720p
Формат: MKV

Видео: h.264, 4 462 kb/s, 1280x672
Аудио#1: Русский, (AC3, 2 ch, 384 Кбит/с)
скриншот  скриншот  скриншот  

Общее
Уникальный идентификатор : 195728757556227757598205175688401998877 (0x933FFCCDD14385488C915E44CD77541D)
Полное имя : D:\Iliza.Shlesinger.Elder.Millennial.2018.P.WEB-DL.72Op_KOSHARA.mkv
Формат : Matroska
Версия формата : Version 2
Размер файла : 2,57 Гбайт
Продолжительность : 1 ч. 15 м.
Режим общего битрейта : Переменный
Общий поток : 4848 Кбит/сек
Дата кодирования : UTC 2018-08-09 20:33:17
Программа кодирования : mkvmerge v8.3.0 ('Over the Horizon') 64bit
Библиотека кодирования : libebml v1.3.1 + libmatroska v1.4.2

Видео
Идентификатор : 1
Формат : AVC
Формат/Информация : Advanced Video Codec
Профиль формата : High@L4.1
Параметр CABAC формата : Да
Параметр RefFrames формата : 4 кадра
Идентификатор кодека : V_MPEG4/ISO/AVC
Продолжительность : 1 ч. 15 м.
Вид битрейта : Переменный
Битрейт : 4462 Кбит/сек
Максимальный битрейт : 5000 Кбит/сек
Ширина : 1280 пикселей
Высота : 672 пикселя
Соотношение сторон : 1,905
Режим частоты кадров : Постоянный
Частота кадров : 23,976 (24000/1001) кадра/сек
Стандарт вещания : Component
Цветовое пространство : YUV
Субдискретизация насыщенности : 4:2:0
Битовая глубина : 8 бит
Тип развёртки : Прогрессивная
Бит/(Пиксели*Кадры) : 0.212
Размер потока : 2,31 Гбайт (90%)
Default : Да
Forced : Нет
Цветовой диапазон : Limited
Основные цвета : BT.709
Характеристики трансфера : BT.709
Коэффициенты матрицы : BT.709

Аудио
Идентификатор : 2
Формат : AC-3
Формат/Информация : Audio Coding 3
Расширение режима : CM (complete main)
Параметр Endianness формата : Big
Идентификатор кодека : A_AC3
Продолжительность : 1 ч. 15 м.
Вид битрейта : Постоянный
Битрейт : 384 Кбит/сек
Каналы : 2 канала
Расположение каналов : Front: L R
Частота : 48,0 КГц
Частота кадров : 31,250 кадров/сек (1536 spf)
Метод сжатия : С потерями
Размер потока : 208 Мбайт (8%)
Default : Да
Forced : Нет

pb.wtf



Скачать Илиза: Старейшина Миллениал через торрент http://img11.lostpic.net/2018/08/12/60d69c41694450c39fc0790fd8a41017.jpg Скачать фильм Илиза: Старейшина Миллениал через торрент бесплантно в хорошем качестве Описание: Известный комик Илиза Шлезингер погружается в бесспорные истины о жизни в возрасте 35 ... 7.8 10 4
Торрент: Зарегистрирован [2018-08-12 13:58] · скачан: 58 раз
Статус: T временная
Размер: 2.57 GB
Как cкачать? Как скачать Илиза: Старейшина Миллениал через торрент | qTorrent

% Раздел Тема Автор DL S | L
T Фильмы (мультфильмы) cо спонсором показа (Новинки AVI/MKV) [ 1.37 GB ] Илиза: Старейшина Миллениал / Iliza: Elder Millennial [2018 WEB-DLRip] MVO ["Синема УС"] bober100 Скачать
1 | 0

28-11-2019 20:33  

Отключить всю рекламу на сайте

    Дорогой пользователь! Огромная просьба, поблагодарите релизера, оцените раздачу и оставьте свои комментарий, если Вы скачали Илиза: Старейшина Миллениал через торрент бесплатно! Внесите свою лепту в развитие PiratBit!
    Комментировать посты могут только пользователи прошедшие не сложную регистрацию
    Показать сообщения:    

    Илиза: Старейшина Миллениал через торрент
    Скачать бесплатно Илиза: Старейшина Миллениал
    Илиза: Старейшина Миллениал скачать торрент
    Илиза: Старейшина Миллениал смотреть онлайн
    Cкачать фильм Илиза: Старейшина Миллениал бесплатно
    Илиза: Старейшина Миллениал скачать торрент в хорошем качестве
    Илиза: Старейшина Миллениал смотреть онлайн бесплатно в хорошем качестве


    Вы не можете начинать темы
    Вы не можете отвечать на сообщения
    Вы не можете редактировать свои сообщения
    Вы не можете удалять свои сообщения
    Вы не можете голосовать в опросах
    Вы не можете прикреплять файлы к сообщениям
    Вы можете скачивать файлы