Ссылка на приватное зеркало всего за 1$. Внимание количество ограничено!!!

iTunes

iTunes

iTunes

1

iTunes

iTunes

iTunes

WEBRip

iTunes

30
pack

$ от Little Big

ВАЖНО

!!Акция!!

Alien_RageХит недели

RePack

Resident Evil 21

ИГРА 18+

pack

RePack

jed

!!Акция!!

Alien_Rage

RePack

fifa19

RePack

Assassins Creed: Odyssey

RePack

NEED FOR SPEED™ PAYBACK

4 сезон

9 сезон

Бесстыжие 9 сезон

Все сериалы

все сериалы на PB.wtf

RePack

FAR CRY 5
  

Выходные с семьей / A Weekend with the Family (Крис Стоукс) [2016 г., Комедия, WEB-DLRip, Любительский (многоголосый)] [Синема УС] pb.wtf

Выходные с семьей через торрент pb.wtf

Размер: 1.37 GB | Добавлен: 1 год 11 мес. назад | Торрент скачан:21 раз
Скачать  

12-08-2018 14:14 Выходные с семьей Скачать торрент  

Выходные с семьей / A Weekend with the Family
Год выпуска: 2016
Страна: США
Жанр: Комедия
Продолжительность: 01:27:11
Перевод: Любительский (многоголосый) | Синема УС
Субтитры: Отсутствуют

Режиссер: Крис Стоукс

rating

В ролях: Дориен Уилсон, Карруче Тран, Клифтон Пауэлл, Венди Рэкуэл Робинсон, Сюзанна Уэнг, Шондрелла Эйвери, Chantel Jeffries, Маркус Хьюстон, Блэк Томас, Келли Перин

Описание: Молодой адвокат претендует на престижную должность в известной юридической фирме, в то же время, он тайно встречается с дочерью своего босса, надеясь, что в скором времени женится. Но когда его любящая подруга решает устроить сюрприз для обеих семей в выходные, его планы разваливаются, особенно из-за прибытия Станкерша, родственника из его семьи. Между двумя семьями возникает неприязнь и это создает серьезные проблемы для будущего жениха ..

Качество: WEB-DLRip
Формат: AVI
Видео кодек: XviD
Аудио кодек: AC3
Видео: XviD, 720x304 , 23.9fps, 1851 Kbps
Аудио#1: AC3 , 2 ch , 48 kHz , 384 kbps
скриншот   скриншот   скриншот   скриншот  

Общее
Полное имя : D:A.Weekend.With.The.Family.2016.P.WEB-DLRip.14OOMB.avi
Формат : AVI
Формат/Информация : Audio Video Interleave
Размер файла : 1,37 Гбайт
Продолжительность : 1 ч. 27 м.
Общий поток : 2244 Кбит/сек
Программа кодирования : VirtualDubMod 1.5.10.2 (build 2540/release)
Библиотека кодирования : VirtualDubMod build 2540/release

Видео
Идентификатор : 0
Формат : MPEG-4 Visual
Профиль формата : Advanced Simple@L5
Параметр BVOP формата : 2
Параметр QPel формата : Нет
Параметр GMC формата : Без точки перехода
Параметр матрицы формата : Выборочная
Идентификатор кодека : XVID
Идентификатор кодека/Подсказка : XviD
Продолжительность : 1 ч. 27 м.
Битрейт : 1851 Кбит/сек
Ширина : 720 пикселей
Высота : 304 пикселя
Соотношение сторон : 2,35:1
Частота кадров : 23,976 кадра/сек
Цветовое пространство : YUV
Субдискретизация насыщенности : 4:2:0
Битовая глубина : 8 бит
Тип развёртки : Прогрессивная
Метод сжатия : С потерями
Бит/(Пиксели*Кадры) : 0.353
Размер потока : 1,13 Гбайт (82%)
Библиотека кодирования : XviD 1.2.1 (UTC 2008-12-04)

Аудио
Идентификатор : 1
Формат : AC-3
Формат/Информация : Audio Coding 3
Расширение режима : CM (complete main)
Параметр Endianness формата : Big
Идентификатор кодека : 2000
Продолжительность : 1 ч. 27 м.
Вид битрейта : Постоянный
Битрейт : 384 Кбит/сек
Каналы : 2 канала
Расположение каналов : Front: L R
Частота : 48,0 КГц
Битовая глубина : 16 бит
Метод сжатия : С потерями
Размер потока : 239 Мбайт (17%)
Выравнивание : Разделение по промежуткам
Продолжительность промежутка : 42 мс. (1,00 видеокадр)
Время предзагрузки промежутка : 500 мс.

pb.wtf



Скачать Выходные с семьей через торрент http://pic1.kartinco.top/images/11/dov4s.jpg Скачать фильм Выходные с семьей через торрент бесплантно в хорошем качестве Описание: Молодой адвокат претендует на престижную должность в известной юридической фирме, в то же время, он тайно встречается с дочерью ... 7 10 3
Торрент: Зарегистрирован [2018-08-12 14:14] · скачан: 21 раз
Статус: T временная
Размер: 1.37 GB
Как cкачать? Как скачать Выходные с семьей через торрент | qTorrent

28-11-2019 20:33  

Отключить всю рекламу на сайте

12-08-2018 16:51 Выходные с семьей Скачать торрент  

снова фильм "от негров для негров про негров"pb.wtf



12-08-2018 21:06 Выходные с семьей Скачать торрент  

sergunka писал(а):

снова фильм "от негров для негров про негров"

и для китаез судя по скрину .pb.wtf



    Дорогой пользователь! Огромная просьба, поблагодарите релизера, оцените раздачу и оставьте свои комментарий, если Вы скачали Выходные с семьей через торрент бесплатно! Внесите свою лепту в развитие PiratBit!
    Комментировать посты могут только пользователи прошедшие не сложную регистрацию
    Показать сообщения:    

    Выходные с семьей через торрент
    Скачать бесплатно Выходные с семьей
    Выходные с семьей скачать торрент
    Выходные с семьей смотреть онлайн
    Cкачать фильм Выходные с семьей бесплатно
    Выходные с семьей скачать торрент в хорошем качестве
    Выходные с семьей смотреть онлайн бесплатно в хорошем качестве


    Вы не можете начинать темы
    Вы не можете отвечать на сообщения
    Вы не можете редактировать свои сообщения
    Вы не можете удалять свои сообщения
    Вы не можете голосовать в опросах
    Вы не можете прикреплять файлы к сообщениям
    Вы можете скачивать файлы