Ссылка на приватное зеркало всего за 1$. Внимание количество ограничено!!!

OK

1+1

iTunes

мы

OK

1

WEB-DLRip

Джокер

Пифагор

Ведьмак / The Witcher сериал

iTunes

ПШазам

ОК

Оно 2

iTunes

30
pack

Вам бонус

ВАЖНО

!!Акция!!

Alien_RageХит недели

RePack

Resident Evil 21

ИГРА 18+

pack

RePack

jed

RePack

fifa19

RePack

Assassins Creed: Odyssey

RePack

NEED FOR SPEED™ PAYBACK

4 сезон

9 сезон

Бесстыжие 9 сезон

Все сериалы

все сериалы на PB.wtf

RePack

FAR CRY 5
  

Любовь с сафари / Love on Safari (Лейф Бристоу) [2018, Мелодрама, HDTVRip 720p] MVO [AlfaProject] pb.wtf

Любовь с сафари через торрент pb.wtf

Размер: 2.97 GB | Добавлен: 1 год 5 мес. назад | Торрент скачан:48 раз
Скачать  

12-08-2018 14:16 Любовь с сафари Скачать торрент  

Любовь с сафари / Love on SafariГод выпуска: 2018
Страна: Канада
Жанр: Мелодрама
Продолжительность: 01:27:44
Перевод: Любительский (многоголосый) | AlphaProject
Субтитры: отсутствуют

Режиссер: Лейф Бристоу

rating

В ролях:

Лейси Чаберт, Джон Кор, Бриттани Бристоу, Абигейл Кубека, Джонатан Роксмут, Фрэнсис Чалер, Барбора Теллингер, Марк Ричардсон, Шелейн Беннет, Хабисо Нгквабе

Описание:

Когда Кира Слейтер получает в наследство парк дикой природы в Южной Африке, ей предстоит решить продавать его или, бросив размеренную жизнь в Чикаго, переехать в новый мир, который так близок её сердцу. Прекрасные дикие животные, искренние отношения между людьми и невероятная природа парка подскажут ей верный путь.

Качество: HDTVRip 720p
Формат: MKV

Видео: H.264, 4 467 kb/s, 1280x720
Аудио#1: Русский, (AC3, 2 ch, 384 Кбит/с)
скриншот  скриншот  скриншот  

Общее
Уникальный идентификатор : 223355359952038280399538719427396869307 (0xA808AD7700F102C49E567BF6D1739CBB)
Полное имя : D:\Love.on.safari.2018.Pa.HDTV.72Op_KOSHARA.mkv
Формат : Matroska
Версия формата : Version 2
Размер файла : 2,97 Гбайт
Продолжительность : 1 ч. 27 м.
Режим общего битрейта : Переменный
Общий поток : 4853 Кбит/сек
Дата кодирования : UTC 2018-08-09 19:27:16
Программа кодирования : mkvmerge v8.3.0 ('Over the Horizon') 64bit
Библиотека кодирования : libebml v1.3.1 + libmatroska v1.4.2

Видео
Идентификатор : 1
Формат : AVC
Формат/Информация : Advanced Video Codec
Профиль формата : High@L4.1
Параметр CABAC формата : Да
Параметр RefFrames формата : 4 кадра
Идентификатор кодека : V_MPEG4/ISO/AVC
Продолжительность : 1 ч. 27 м.
Вид битрейта : Переменный
Битрейт : 4467 Кбит/сек
Максимальный битрейт : 5000 Кбит/сек
Ширина : 1280 пикселей
Высота : 720 пикселей
Соотношение сторон : 16:9
Режим частоты кадров : Постоянный
Частота кадров : 23,976 (24000/1001) кадра/сек
Стандарт вещания : Component
Цветовое пространство : YUV
Субдискретизация насыщенности : 4:2:0
Битовая глубина : 8 бит
Тип развёртки : Прогрессивная
Бит/(Пиксели*Кадры) : 0.198
Размер потока : 2,68 Гбайт (90%)
Default : Да
Forced : Нет
Цветовой диапазон : Limited
Основные цвета : BT.709
Характеристики трансфера : BT.709
Коэффициенты матрицы : BT.709

Аудио
Идентификатор : 2
Формат : AC-3
Формат/Информация : Audio Coding 3
Расширение режима : CM (complete main)
Параметр Endianness формата : Big
Идентификатор кодека : A_AC3
Продолжительность : 1 ч. 27 м.
Вид битрейта : Постоянный
Битрейт : 384 Кбит/сек
Каналы : 2 канала
Расположение каналов : Front: L R
Частота : 48,0 КГц
Частота кадров : 31,250 кадров/сек (1536 spf)
Метод сжатия : С потерями
Размер потока : 241 Мбайт (8%)
Default : Да
Forced : Нет

pb.wtf



Скачать Любовь с сафари через торрент http://img11.lostpic.net/2018/08/12/61ae7ba89375b6bcd81510eaca9370e8.jpg Скачать фильм Любовь с сафари через торрент бесплантно в хорошем качестве Описание: Когда Кира Слейтер получает в наследство парк дикой природы в Южной Африке, ей предстоит решить продавать его или, бросив ... 7.8 10 4
Торрент: Зарегистрирован [2018-08-12 14:16] · скачан: 48 раз
Статус: T временная
Размер: 2.97 GB
Как cкачать? Как скачать Любовь с сафари через торрент | qTorrent

% Раздел Тема Автор DL S | L
T Фильмы (мультфильмы) cо спонсором показа (Новинки AVI/MKV) [ 1.37 GB ] Любовь с сафари / Love on Safari [2018 Мело HDTVRip] MVO [AlfaProject] bober100 Скачать
1 | 0

28-11-2019 20:33  

Отключить всю рекламу на сайте

    Дорогой пользователь! Огромная просьба, поблагодарите релизера, оцените раздачу и оставьте свои комментарий, если Вы скачали Любовь с сафари через торрент бесплатно! Внесите свою лепту в развитие PiratBit!
    Комментировать посты могут только пользователи прошедшие не сложную регистрацию
    Показать сообщения:    

    Любовь с сафари через торрент
    Скачать бесплатно Любовь с сафари
    Любовь с сафари скачать торрент
    Любовь с сафари смотреть онлайн
    Cкачать фильм Любовь с сафари бесплатно
    Любовь с сафари скачать торрент в хорошем качестве
    Любовь с сафари смотреть онлайн бесплатно в хорошем качестве


    Вы не можете начинать темы
    Вы не можете отвечать на сообщения
    Вы не можете редактировать свои сообщения
    Вы не можете удалять свои сообщения
    Вы не можете голосовать в опросах
    Вы не можете прикреплять файлы к сообщениям
    Вы можете скачивать файлы