Доктор Стрэндж

Лицензия

Добыча

MVO

Дом дракона

1 сезон

Тор

Лицензия

Мэверик

Лицензия

Там, где раки поют

MVO

Властелин колец

1 сезон

Ultimate

pack

Рекомендуем

30

Repack

ВАЖНО

ВАЖНО

Ghostwire

RePack

jed

RePack

nioh2

RePack

RDR2

RePack

NEED FOR SPEED™ PAYBACK

RePack

скачать торрент

Кинопоиск HD

Острые козырьки 6 сезон

6 сезон

FAR CRY 6

RePack

скачать торрент

Лицензия

скачать торрент

MVO

1

1 сезон

скачать торрент

1 сезон

скачать торрент

Лицензия

  

Потерянная / Perdida (Алехандро Монтьель) [2018, Триллер, драма, криминал, детектив, WEB-DL 720p] MVO ["Синема УС"]

Потерянная через торрент pb.wtf

Размер: 3.8 GB | Добавлен: 4 года 1 мес. назад | Торрент скачан:50 раз
Смотреть онлайн | Скачать   

12-08-2018 14:56 Потерянная Скачать торрент  

Потерянная / Perdida
Год выпуска: 2018
Страна: Аргентина, Испания
Жанр: Триллер, драма, криминал, детектив
Продолжительность: 01:47:34
Перевод: Любительский (многоголосый) | "Синема УС"
Субтитры: отсутствуют

Режиссер: Алехандро Монтьель

rating

В ролях:

Педро Касабланк, Николас Фуртадо, Луисана Лопилато, Аранча Марти, Бенджамин Отеро, Ориана Сабатини, Амайя Саламанка, Сара Саламо

Описание:

Фильм основан на романе Флоренции Этчевеш «Корнелия», в котором пойдет о учителе из престижной школы в Буэнос-Айресе совершает поездку с пятью ее учениками, но возвращается только с четырьмя, потому что один из них таинственно исчезает.

Качество: WEB-DL 720p
Формат: MKV

Видео: h.264, 4 675 kb/s, 1280x532
Аудио#1: Русский, (AC3, 2 ch, 384 Кбит/с)
скриншот  скриншот  скриншот  

Общее
Уникальный идентификатор : 239402945479227762560051236990994320393 (0xB41B5484887AB54DBEF14BC285938C09)
Полное имя : D:\Perdida.2018.P.WEB-DL.72Op_KOSHARA.mkv
Формат : Matroska
Версия формата : Version 2
Размер файла : 3,80 Гбайт
Продолжительность : 1 ч. 47 м.
Режим общего битрейта : Переменный
Общий поток : 5061 Кбит/сек
Дата кодирования : UTC 2018-08-09 19:18:25
Программа кодирования : mkvmerge v8.3.0 ('Over the Horizon') 64bit
Библиотека кодирования : libebml v1.3.1 + libmatroska v1.4.2

Видео
Идентификатор : 1
Формат : AVC
Формат/Информация : Advanced Video Codec
Профиль формата : [email protected]
Параметр CABAC формата : Да
Параметр RefFrames формата : 4 кадра
Идентификатор кодека : V_MPEG4/ISO/AVC
Продолжительность : 1 ч. 47 м.
Вид битрейта : Переменный
Битрейт : 4675 Кбит/сек
Максимальный битрейт : 5300 Кбит/сек
Ширина : 1280 пикселей
Высота : 532 пикселя
Соотношение сторон : 2,40:1
Режим частоты кадров : Постоянный
Частота кадров : 23,976 (24000/1001) кадра/сек
Стандарт вещания : Component
Цветовое пространство : YUV
Субдискретизация насыщенности : 4:2:0
Битовая глубина : 8 бит
Тип развёртки : Прогрессивная
Бит/(Пиксели*Кадры) : 0.280
Размер потока : 3,44 Гбайт (90%)
Default : Да
Forced : Нет
Цветовой диапазон : Limited
Основные цвета : BT.709
Характеристики трансфера : BT.709
Коэффициенты матрицы : BT.709

Аудио
Идентификатор : 2
Формат : AC-3
Формат/Информация : Audio Coding 3
Расширение режима : CM (complete main)
Параметр Endianness формата : Big
Идентификатор кодека : A_AC3
Продолжительность : 1 ч. 47 м.
Вид битрейта : Постоянный
Битрейт : 384 Кбит/сек
Каналы : 2 канала
Расположение каналов : Front: L R
Частота : 48,0 КГц
Частота кадров : 31,250 кадров/сек (1536 spf)
Метод сжатия : С потерями
Размер потока : 295 Мбайт (8%)
Default : Да
Forced : Нет




Скачать Потерянная через торрент http://img11.lostpic.net/2018/08/12/8a496d922ad5a6a463493b368bf2ee52.jpg Скачать, смотреть онлайн Потерянная бесплантно в хорошем качестве Описание: Фильм основан на романе Флоренции Этчевеш «Корнелия», в котором пойдет о учителе из престижной школы в Буэнос-Айресе совершает ... 7 10 3
Торрент: Зарегистрирован [2018-08-12 14:56] · скачан: 50 раз
Статус: T временная
Размер: 3.8 GB
Как cкачать? Как скачать Потерянная через торрент | UTorrent

% Раздел Тема Автор DL S | L
T Фильмы (мультфильмы) cо спонсором показа (Новинки AVI/MKV) [ 1.37 GB ] Потерянная / Perdida | MVO | DLRip bober100 Скачать
1 | 0

28-11-2019 20:33  


Отключить вcю реклaмy на сайте, в т.ч. и в плеере онлайн просмотра!

12-08-2018 15:10 Потерянная Скачать торрент  

описание соответствует целевой категории - максимум для учеников пятого класса



13-08-2018 04:16 Потерянная Скачать торрент  

anehnah писал(а):

описание соответствует целевой категории - максимум для учеников пятого класса

я в шыстом и мне панравилась, ну и кто ты типерь?



    Дорогой пользователь! Огромная просьба, поблагодарите релизера, оцените раздачу и оставьте свои комментарий, если Вы скачали Потерянная через торрент бесплатно!!
    Комментировать посты могут только пользователи прошедшие не сложную регистрацию
    Показать сообщения:    


    Потерянная через торрент
    Скачать бесплатно Потерянная
    Потерянная скачать торрент
    Потерянная смотреть онлайн
    Cкачать фильм Потерянная бесплатно
    Потерянная скачать торрент в хорошем качестве
    Потерянная смотреть онлайн бесплатно в хорошем качестве
    Вы не можете начинать темы
    Вы не можете отвечать на сообщения
    Вы не можете редактировать свои сообщения
    Вы не можете удалять свои сообщения
    Вы не можете голосовать в опросах
    Вы не можете прикреплять файлы к сообщениям
    Вы можете скачивать файлы