Ссылка на приватное зеркало всего за 1$. Внимание количество ограничено!!!

OK

1+1

iTunes

мы

OK

1

WEB-DLRip

Джокер

Пифагор

Ведьмак / The Witcher сериал

Лицензия

ПШазам

ОК

Оно 2

iTunes

30
pack

Вам бонус

ВАЖНО

!!Акция!!

Alien_RageХит недели

RePack

Resident Evil 21

ИГРА 18+

pack

RePack

jed

RePack

fifa19

RePack

Assassins Creed: Odyssey

RePack

NEED FOR SPEED™ PAYBACK

4 сезон

9 сезон

Бесстыжие 9 сезон

Все сериалы

все сериалы на PB.wtf

RePack

FAR CRY 5
  

Игольница / Pin Cushion (Дебора Хэйвуд) [2017, Драма, WEB-DL 720p] MVO ["Синема УС"] pb.wtf

Игольница через торрент pb.wtf

Размер: 2.85 GB | Добавлен: 1 год 5 мес. назад | Торрент скачан:10 раз
Скачать  

12-08-2018 16:18 Игольница Скачать торрент  

Игольница / Pin CushionГод выпуска: 2017
Страна: Великобритания
Жанр: Драма
Продолжительность: 01:25:40
Перевод: Любительский (многоголосый) | "Синема УС"
Субтитры: отсутствуют

Режиссер: Дебора Хэйвуд

rating

В ролях:

Лили Ньюмарк, Джоэнна Скэнлэн, Лорис Скарпа, Сача Корди-Ницца, Бетани Антония, Саския Пейдж Мартин, София Таки, Джон Хеншоу, Леннон Брэдли, Аури Уэйн

Описание:

Мать-одиночка Лин носит большую меховую шляпу в виде кошачьей головы, которой ужасно стесняется её дочь. Иона тщетно пытается понравиться авторитетным одноклассницам. Лин понимает, что не может больше оставаться лучшей подружкой для своей дочери, и, в свою очередь, тоже пытается завести друзей, сталкиваясь точно с такими же проблемами. Она выдумывает свой идиллический мирок с кошечками и вязанием - это ее мягкая броня для защиты от жёсткого внешнего мира.

Качество: WEB-DL 720p
Формат: MKV

Видео: h.264, 4 374 kb/s, 1280x688
Аудио#1: Русский, (AC3, 2 ch, 384 Кбит/с)
скриншот  скриншот  скриншот  

Общее
Уникальный идентификатор : 178507908452661311265083050701442467671 (0x864B5F6404682B87A81F976955B74757)
Полное имя : D:\Pin.Cushion.2017.P.WEB-DL.72Op_KOSHARA.mkv
Формат : Matroska
Версия формата : Version 2
Размер файла : 2,85 Гбайт
Продолжительность : 1 ч. 25 м.
Режим общего битрейта : Переменный
Общий поток : 4760 Кбит/сек
Дата кодирования : UTC 2018-08-09 03:03:29
Программа кодирования : mkvmerge v8.3.0 ('Over the Horizon') 64bit
Библиотека кодирования : libebml v1.3.1 + libmatroska v1.4.2

Видео
Идентификатор : 1
Формат : AVC
Формат/Информация : Advanced Video Codec
Профиль формата : High@L4.1
Параметр CABAC формата : Да
Параметр RefFrames формата : 4 кадра
Идентификатор кодека : V_MPEG4/ISO/AVC
Продолжительность : 1 ч. 25 м.
Вид битрейта : Переменный
Битрейт : 4374 Кбит/сек
Максимальный битрейт : 5000 Кбит/сек
Ширина : 1280 пикселей
Высота : 688 пикселей
Соотношение сторон : 1,85:1
Режим частоты кадров : Постоянный
Частота кадров : 23,976 (24000/1001) кадра/сек
Стандарт вещания : Component
Цветовое пространство : YUV
Субдискретизация насыщенности : 4:2:0
Битовая глубина : 8 бит
Тип развёртки : Прогрессивная
Бит/(Пиксели*Кадры) : 0.203
Размер потока : 2,56 Гбайт (90%)
Default : Да
Forced : Нет
Цветовой диапазон : Limited
Основные цвета : BT.709
Характеристики трансфера : BT.709
Коэффициенты матрицы : BT.709

Аудио
Идентификатор : 2
Формат : AC-3
Формат/Информация : Audio Coding 3
Расширение режима : CM (complete main)
Параметр Endianness формата : Big
Идентификатор кодека : A_AC3
Продолжительность : 1 ч. 25 м.
Вид битрейта : Постоянный
Битрейт : 384 Кбит/сек
Каналы : 2 канала
Расположение каналов : Front: L R
Частота : 48,0 КГц
Частота кадров : 31,250 кадров/сек (1536 spf)
Метод сжатия : С потерями
Размер потока : 235 Мбайт (8%)
Default : Да
Forced : Нет

pb.wtf



Скачать Игольница через торрент http://img11.lostpic.net/2018/08/12/ef2e25c008db1e90dce701c83be52146.jpg Скачать фильм Игольница через торрент бесплантно в хорошем качестве Описание: Мать-одиночка Лин носит большую меховую шляпу в виде кошачьей головы, которой ужасно стесняется её дочь. Иона тщетно пытается ... 7 10 3
Торрент: Зарегистрирован [2018-08-12 16:18] · скачан: 10 раз
Статус: T временная
Размер: 2.85 GB
Как cкачать? Как скачать Игольница через торрент | qTorrent

% Раздел Тема Автор DL S | L
Фильмы с авторской озвучкой [ 1.35 GB ] Игольница / Pin Cushion [2017 BDRip] AVO [BadBajo] - ExKinoRay Enigma2010 Скачать
1 | 0
T Фильмы (мультфильмы) cо спонсором показа (Новинки AVI/MKV) [ 1.37 GB ] Игольница / Pin Cushion [2017 WEB-DLRip] MVO ["Синема УС"] bober100 Скачать
1 | 0

28-11-2019 20:33  

Отключить всю рекламу на сайте

    Дорогой пользователь! Огромная просьба, поблагодарите релизера, оцените раздачу и оставьте свои комментарий, если Вы скачали Игольница через торрент бесплатно! Внесите свою лепту в развитие PiratBit!
    Комментировать посты могут только пользователи прошедшие не сложную регистрацию
    Показать сообщения:    

    Игольница через торрент
    Скачать бесплатно Игольница
    Игольница скачать торрент
    Игольница смотреть онлайн
    Cкачать фильм Игольница бесплатно
    Игольница скачать торрент в хорошем качестве
    Игольница смотреть онлайн бесплатно в хорошем качестве


    Вы не можете начинать темы
    Вы не можете отвечать на сообщения
    Вы не можете редактировать свои сообщения
    Вы не можете удалять свои сообщения
    Вы не можете голосовать в опросах
    Вы не можете прикреплять файлы к сообщениям
    Вы можете скачивать файлы