2 сезон

iTunes

MVO

1

2 сезон

iTunes

iTunes

1 сезон

RePack

30

Новинка

ВАЖНО

ИГРА 18+

pack

RePack

MK11
pack

Легкие деньги

RePack

jed

RePack

fifa19

RePack

RDR2

RePack

NEED FOR SPEED™ PAYBACK

4 сезон

9 сезон

Бесстыжие 9 сезон

Все сериалы

все сериалы на PB.wtf

RePack

FAR CRY 5

Anonymous, доброе утро, мы не успеваем собрать деньги на оплату серверов за декабрь и январь, помогите нам пожалуйста в это трудное время. В качестве благодарности мы отключим Вам всю рекламу на сайте (укажите свой ник в строку Ваше имя)!

×
  
Magnet ссылка

Конвой / Le convoi (Фредерик Шёндёрфер) [2016, Триллер, криминал, BDRip 1080p] AVO [А.Карповский] +MVO [Первый канал] pb.wtf

Конвой через торрент pb.wtf

Размер: 11.98 GB | Добавлен: 2 года 5 мес. назад | Торрент скачан:119 раз
Скачать  

12-08-2018 17:47 Конвой Скачать торрент  

Конвой / Le convoi
Год выпуска: 2016
Страна: Франция
Жанр: Триллер, криминал
Продолжительность: 01:42:30
Перевод:

Перевод 1: Профессиональный (многоголосый) | кинокомпания Эй Би Видео по заказу Первого канала
Перевод 2: Авторский (одноголосый закадровый) | Антон Карповский - ненормативная лексика

Субтитры: Французские, английские, испанские, португальские, немецкие, польские, шведские, сербские, словенски

Режиссер: Фредерик Шёндёрфер

rating

В ролях:

Бенуа Мажимель, Рем Кериси, Тауфик Жаллаб, Мэхди Белемлих, Эмир Эль Касим, Леон Гарель, Софтан Каммес, Фэд Амара, Ален Фиглаж, Карин Мартан-Превель, Фэнни Гюдеко, Ясин Бен Моусса, Оливье Одибер

Описание:

Фильм о страстях тех, кто вынужден рисковать, об исламской семье, где идут за старшим братом и мечтают о роскошной жизни, прозябая в нищете. Этих людей несёт ветер криминального азарта, он подгоняет их роскошные машины, полные наркотиков, по автострадам через блокпосты и засады. Весь фильм проходит в движении машин. Кто-то едет спереди, чтобы проведать обстановку, кто-то везет основной груз, сзади страхует Алекс, - прожженый профессионал, который хладнокровно подчищает грязную работу своих не слишком ловких друзей.

Качество: BDRip 1080p
Формат: MKV

Видео: MPEG-4, 1920x804 (2.40:1), 13,5 Mbps, 24.000 fps, 0.365 bit/pixel
Аудио#1: Русский AC3, 48 kHz, 2ch, 192 kbps (Первого канала)
Аудио#2: Русский DTS 5.1 / 48 kHz / 1509 kbps / 16-bit (Антон Карповский)
Аудио#3: Французский DTS 5.1 / 48 kHz / 1509 kbps / 16-bit
скриншот   скриншот   скриншот   скриншот   скриншот  

Общее
Уникальный идентификатор : 126040161076657764112303514702648524691 (0x5ED273B8FA680BA2D902F9D285B93F93)
Полное имя : D:\Le.convoi.2016.BDRip.1080p-ylnian.mkv
Формат : Matroska
Версия формата : Version 4 / Version 2
Размер файла : 12,0 Гбайт
Продолжительность : 1 ч. 42 м.
Общий поток : 16,7 Мбит/сек
Название фильма : Le.convoi.2016.BDRip.1080p-ylnian
Дата кодирования : UTC 2018-08-12 06:18:19
Программа кодирования : mkvmerge v25.0.0 ('Prog Noir') 64-bit
Библиотека кодирования : libebml v1.3.6 + libmatroska v1.4.9

Видео
Идентификатор : 1
Формат : AVC
Формат/Информация : Advanced Video Codec
Профиль формата : High@L4.1
Параметр CABAC формата : Да
Параметр RefFrames формата : 4 кадра
Идентификатор кодека : V_MPEG4/ISO/AVC
Продолжительность : 1 ч. 42 м.
Битрейт : 13,5 Мбит/сек
Ширина : 1920 пикселей
Высота : 804 пикселя
Соотношение сторон : 2,40:1
Режим частоты кадров : Постоянный
Частота кадров : 24,000 кадра/сек
Цветовое пространство : YUV
Субдискретизация насыщенности : 4:2:0
Битовая глубина : 8 бит
Тип развёртки : Прогрессивная
Бит/(Пиксели*Кадры) : 0.365
Размер потока : 9,44 Гбайт (79%)
Заголовок : Le.convoi.2016.BDRip.1080p-ylnian
Библиотека кодирования : x264 core 155 r2901 7d0ff22
Настройки программы : cabac=1 / ref=4 / deblock=1:-3:-3 / analyse=0x3:0x133 / me=umh / subme=11 / psy=1 / psy_rd=1.05:0.00 / mixed_ref=1 / me_range=64 / chroma_me=1 / trellis=2 / 8x8dct=1 / cqm=0 / deadzone=21,11 / fast_pskip=0 / chroma_qp_offset=-4 / threads=12 / lookahead_threads=2 / sliced_threads=0 / nr=0 / decimate=1 / interlaced=0 / bluray_compat=0 / constrained_intra=0 / bframes=9 / b_pyramid=2 / b_adapt=2 / b_bias=0 / direct=2 / weightb=1 / open_gop=0 / weightp=2 / keyint=250 / keyint_min=23 / scenecut=40 / intra_refresh=0 / rc_lookahead=250 / rc=crf / mbtree=0 / crf=17.0 / qcomp=0.60 / qpmin=0 / qpmax=69 / qpstep=4 / vbv_maxrate=62500 / vbv_bufsize=78125 / crf_max=0.0 / nal_hrd=none / filler=0 / ip_ratio=1.30 / pb_ratio=1.20 / aq=2:0.80
Язык : French
Default : Да
Forced : Да

Аудио #1
Идентификатор : 2
Формат : AC-3
Формат/Информация : Audio Coding 3
Расширение режима : CM (complete main)
Параметр Endianness формата : Big
Идентификатор кодека : A_AC3
Продолжительность : 1 ч. 42 м.
Вид битрейта : Постоянный
Битрейт : 192 Кбит/сек
Каналы : 2 канала
Расположение каналов : Front: L R
Частота : 48,0 КГц
Частота кадров : 31,250 кадров/сек (1536 spf)
Метод сжатия : С потерями
Размер потока : 141 Мбайт (1%)
Заголовок : MVO (AC3 2.0 192 kbps)
Язык : Russian
Default : Да
Forced : Да

Аудио #2
Идентификатор : 3
Формат : DTS
Формат/Информация : Digital Theater Systems
Режим : 16
Параметр Endianness формата : Big
Идентификатор кодека : A_DTS
Продолжительность : 1 ч. 42 м.
Вид битрейта : Постоянный
Битрейт : 1509 Кбит/сек
Каналы : 6 каналов
Расположение каналов : Front: L C R, Side: L R, LFE
Частота : 48,0 КГц
Частота кадров : 93,750 кадра/сек (512 spf)
Битовая глубина : 16 бит
Метод сжатия : С потерями
Размер потока : 1,08 Гбайт (9%)
Заголовок : AVO (DTS 5.1 1509 kbps)
Язык : Russian
Default : Нет
Forced : Нет

Аудио #3
Идентификатор : 4
Формат : DTS
Формат/Информация : Digital Theater Systems
Режим : 16
Параметр Endianness формата : Big
Идентификатор кодека : A_DTS
Продолжительность : 1 ч. 42 м.
Вид битрейта : Постоянный
Битрейт : 1509 Кбит/сек
Каналы : 6 каналов
Расположение каналов : Front: L C R, Side: L R, LFE
Частота : 48,0 КГц
Частота кадров : 93,750 кадра/сек (512 spf)
Битовая глубина : 16 бит
Метод сжатия : С потерями
Размер потока : 1,08 Гбайт (9%)
Заголовок : DTS 5.1 1509 kbps
Язык : French
Default : Нет
Forced : Нет

Текст #1
Идентификатор : 5
Формат : UTF-8
Идентификатор кодека : S_TEXT/UTF8
Идентификатор кодека/Информация : UTF-8 Plain Text
Язык : French
Default : Нет
Forced : Нет

Текст #2
Идентификатор : 6
Формат : UTF-8
Идентификатор кодека : S_TEXT/UTF8
Идентификатор кодека/Информация : UTF-8 Plain Text
Язык : English
Default : Нет
Forced : Нет

Текст #3
Идентификатор : 7
Формат : UTF-8
Идентификатор кодека : S_TEXT/UTF8
Идентификатор кодека/Информация : UTF-8 Plain Text
Язык : Spanish
Default : Нет
Forced : Нет

Текст #4
Идентификатор : 8
Формат : UTF-8
Идентификатор кодека : S_TEXT/UTF8
Идентификатор кодека/Информация : UTF-8 Plain Text
Язык : Portuguese
Default : Нет
Forced : Нет

Текст #5
Идентификатор : 9
Формат : UTF-8
Идентификатор кодека : S_TEXT/UTF8
Идентификатор кодека/Информация : UTF-8 Plain Text
Язык : German
Default : Нет
Forced : Нет

Текст #6
Идентификатор : 10
Формат : UTF-8
Идентификатор кодека : S_TEXT/UTF8
Идентификатор кодека/Информация : UTF-8 Plain Text
Язык : Polish
Default : Нет
Forced : Нет

Текст #7
Идентификатор : 11
Формат : UTF-8
Идентификатор кодека : S_TEXT/UTF8
Идентификатор кодека/Информация : UTF-8 Plain Text
Язык : Swedish
Default : Нет
Forced : Нет

Текст #8
Идентификатор : 12
Формат : UTF-8
Идентификатор кодека : S_TEXT/UTF8
Идентификатор кодека/Информация : UTF-8 Plain Text
Язык : Serbian
Default : Нет
Forced : Нет

Текст #9
Идентификатор : 13
Формат : UTF-8
Идентификатор кодека : S_TEXT/UTF8
Идентификатор кодека/Информация : UTF-8 Plain Text
Язык : Slovenian
Default : Нет
Forced : Нет

Меню
00:00:00.000 : en:Chapter 01
00:12:39.791 : en:Chapter 02
00:23:33.208 : en:Chapter 03
00:33:10.666 : en:Chapter 04
00:44:06.000 : en:Chapter 05
00:57:38.375 : en:Chapter 06
01:12:36.708 : en:Chapter 07
01:21:04.541 : en:Chapter 08
01:32:28.416 : en:Chapter 09

pb.wtf



Скачать Конвой через торрент http://img11.lostpic.net/2018/08/11/c856a66e84a10c21f0f28a1cb4e8961e.jpg Скачать фильм Конвой через торрент бесплантно в хорошем качестве Описание: Фильм о страстях тех, кто вынужден рисковать, об исламской семье, где идут за старшим братом и мечтают о роскошной жизни, ... 10 10 6
Торрент: Зарегистрирован [2018-08-12 17:47] · скачан: 119 раз
Статус: T временная
Размер: 11.98 GB
Как cкачать? Как скачать Конвой через торрент | UTorrent

% Раздел Тема Автор DL S | L
Фильмы с авторской озвучкой [ 1.46 GB ] Конвой / Le convoi [2016 BDRip] AVO Ворон Скачать
1 | 0
T Фильмы [HD 720p, 1080p] (Хороший звук DUB, MVO) [ 4.86 GB ] Конвой / Le convoi [2016 BDRip 720p] AVO [А.Карповский] +MVO [Первый канал] bober100 Скачать
1 | 0
T Фильмы (Blu-ray, BD-Remux, HDDVD) [ 22.92 GB ] Конвой / Le convoi [2016 BD Remux 1080p] AVO [А.Карповский] +MVO [Первый канал] bober100 Скачать
1 | 0
T Фильмы 2016 [DVDrip, WEB-DLRip, HDrip] (DUB, MVO) [ 1.46 GB ] Конвой / Le convoi [2016 BDRip] MVO [Первый канал] bober100 Скачать
1 | 0

28-11-2019 20:33  

Отключить всю рекламу на сайте

    Дорогой пользователь! Огромная просьба, поблагодарите релизера, оцените раздачу и оставьте свои комментарий, если Вы скачали Конвой через торрент бесплатно! Внесите свою лепту в развитие PiratBit!
    Комментировать посты могут только пользователи прошедшие не сложную регистрацию
    Показать сообщения:    

    Конвой через торрент
    Скачать бесплатно Конвой
    Конвой скачать торрент
    Конвой смотреть онлайн
    Cкачать фильм Конвой бесплатно
    Конвой скачать торрент в хорошем качестве
    Конвой смотреть онлайн бесплатно в хорошем качестве


    Вы не можете начинать темы
    Вы не можете отвечать на сообщения
    Вы не можете редактировать свои сообщения
    Вы не можете удалять свои сообщения
    Вы не можете голосовать в опросах
    Вы не можете прикреплять файлы к сообщениям
    Вы можете скачивать файлы