Ссылка на приватное зеркало всего за 1$. Внимание количество ограничено!!!

OK

1+1

iTunes

мы

OK

1

WEB-DLRip

Джокер

Пифагор

Ведьмак / The Witcher сериал

Лицензия

ПШазам

ОК

Оно 2

iTunes

30
pack

Вам бонус

ВАЖНО

!!Акция!!

Alien_RageХит недели

RePack

Resident Evil 21

ИГРА 18+

pack

RePack

jed

!!Акция!!

Alien_Rage

RePack

fifa19

RePack

Assassins Creed: Odyssey

RePack

NEED FOR SPEED™ PAYBACK

4 сезон

9 сезон

Бесстыжие 9 сезон

Все сериалы

все сериалы на PB.wtf

RePack

FAR CRY 5
  

План побега 2 / Escape Plan 2: Hades (Стивен С. Миллер) [2018, боевик, триллер, BDRip 1080p] DUB [iTunes] pb.wtf

План побега 2 через торрент pb.wtf

Раздают: 1 [ 24 KB/s ]
Размер: 8.51 GB | Добавлен: 1 год 5 мес. назад | Торрент скачан:805 раз
Скачать  

12-08-2018 21:10 План побега 2 Скачать торрент  

План побега 2 / Escape Plan 2: Hades
Год выпуска: 2018
Страна: Китай, США
Жанр: боевик, триллер
Продолжительность: 01:33:37
Перевод: Профессиональный многоголосый | iTunes
Субтитры: Английские

Режиссер: Стивен С. Миллер

rating

В ролях:

Дэйв Батиста, Байли Каррен, Сильвестр Сталлоне, Джейми Кинг, Уэс Чэтэм, Титус Уэлливер, Джесси Меткалф, Фифти Сент, Винсент Янг, Лидия Халл

Описание:

Новая, самая современная тюрьма, из которой не сбежать. Ему снова брошен вызов! Он вернулся, чтобы выручить напарника и доказать, что для него нет невозможного. Добро пожаловать в АиД!

Качество: BDRip 1080p
Формат: MKV

Видео: MPEG-4 AVC, 1920x804, 12.0 Mbit/s, 23.976 fps
Аудио#1: 48 kHz, AC3, 5.1, 384 Kbps | iTunes | RUS |
Аудио#2: 48 kHz, AC3, 5.1, 640 Kbps | Оригинал | ENG |
скриншот  скриншот  скриншот  скриншот  скриншот  

General
Unique ID : 192144840151122615264475011673253371581 (0x908DC0089005310AA784EBA5A3EE5EBD)
Complete name : D:\Video111\Escape.Plan.2.Hades.2018.BDRip.1080p.ExKinoRay.mkv
Format : Matroska
Format version : Version 4 / Version 2
File size : 8.51 GiB
Duration : 1 h 33 min
Overall bit rate : 13.0 Mb/s
Movie name : Escape Plan 2 Hades 2018 from ExKinoRay
Encoded date : UTC 2018-08-12 20:55:22
Writing application : mkvmerge v7.3.0 ('Nouages') 64bit built on Oct 22 2014 18:53:34
Writing library : libebml v1.3.0 + libmatroska v1.4.1

Video
ID : 1
Format : AVC
Format/Info : Advanced Video Codec
Format profile : High@L4.1
Format settings : CABAC / 5 Ref Frames
Format settings, CABAC : Yes
Format settings, ReFrames : 5 frames
Codec ID : V_MPEG4/ISO/AVC
Duration : 1 h 33 min
Bit rate : 12.0 Mb/s
Width : 1 920 pixels
Height : 804 pixels
Display aspect ratio : 2.40:1
Frame rate mode : Constant
Frame rate : 23.976 (24000/1001) FPS
Color space : YUV
Chroma subsampling : 4:2:0
Bit depth : 8 bits
Scan type : Progressive
Bits/(Pixel*Frame) : 0.324
Stream size : 7.84 GiB (92%)
Writing library : x264 core 148 r2705 3f5ed56
Encoding settings : cabac=1 / ref=5 / deblock=1:-2:-2 / analyse=0x3:0x133 / me=umh / subme=11 / psy=1 / psy_rd=1.20:0.20 / mixed_ref=1 / me_range=32 / chroma_me=1 / trellis=2 / 8x8dct=1 / cqm=0 / deadzone=21,11 / fast_pskip=0 / chroma_qp_offset=-3 / threads=12 / lookahead_threads=2 / sliced_threads=0 / nr=0 / decimate=0 / interlaced=0 / bluray_compat=0 / constrained_intra=0 / bframes=8 / b_pyramid=2 / b_adapt=2 / b_bias=0 / direct=3 / weightb=1 / open_gop=0 / weightp=2 / keyint=240 / keyint_min=23 / scenecut=40 / intra_refresh=0 / rc_lookahead=50 / rc=2pass / mbtree=0 / bitrate=12000 / ratetol=1.0 / qcomp=0.60 / qpmin=0 / qpmax=51 / qpstep=4 / cplxblur=20.0 / qblur=0.5 / vbv_maxrate=50000 / vbv_bufsize=62500 / nal_hrd=none / filler=0 / ip_ratio=1.40 / pb_ratio=1.30 / aq=3:0.80
Language : English
Default : Yes
Forced : No

Audio #1
ID : 2
Format : AC-3
Format/Info : Audio Coding 3
Commercial name : Dolby Digital
Codec ID : A_AC3
Duration : 1 h 33 min
Bit rate mode : Constant
Bit rate : 384 kb/s
Channel(s) : 6 channels
Channel positions : Front: L C R, Side: L R, LFE
Sampling rate : 48.0 kHz
Frame rate : 31.250 FPS (1536 SPF)
Bit depth : 16 bits
Compression mode : Lossy
Stream size : 257 MiB (3%)
Title : iTunes
Language : Russian
Service kind : Complete Main
Default : Yes
Forced : Yes

Audio #2
ID : 3
Format : AC-3
Format/Info : Audio Coding 3
Commercial name : Dolby Digital
Codec ID : A_AC3
Duration : 1 h 33 min
Bit rate mode : Constant
Bit rate : 640 kb/s
Channel(s) : 6 channels
Channel positions : Front: L C R, Side: L R, LFE
Sampling rate : 48.0 kHz
Frame rate : 31.250 FPS (1536 SPF)
Bit depth : 16 bits
Compression mode : Lossy
Stream size : 429 MiB (5%)
Title : Original
Language : English
Service kind : Complete Main
Default : No
Forced : No

Text #1
ID : 4
Format : UTF-8
Codec ID : S_TEXT/UTF8
Codec ID/Info : UTF-8 Plain Text
Duration : 1 h 24 min
Bit rate : 44 b/s
Count of elements : 846
Stream size : 27.4 KiB (0%)
Title : Full
Language : English
Default : No
Forced : No

Text #2
ID : 5
Format : UTF-8
Codec ID : S_TEXT/UTF8
Codec ID/Info : UTF-8 Plain Text
Duration : 1 h 24 min
Bit rate : 47 b/s
Count of elements : 939
Stream size : 29.7 KiB (0%)
Title : SDH
Language : English
Default : No
Forced : No

Menu
00:00:00.000 : en:00:00:00.000
00:05:48.890 : en:00:05:48.890
00:12:17.445 : en:00:12:17.445
00:16:28.988 : en:00:16:28.988
00:22:49.368 : en:00:22:49.368
00:27:16.134 : en:00:27:16.134
00:34:32.654 : en:00:34:32.654
00:40:00.398 : en:00:40:00.398
00:46:51.600 : en:00:46:51.600
00:51:58.949 : en:00:51:58.949
00:58:57.242 : en:00:58:57.242
01:04:10.013 : en:01:04:10.013
01:09:56.400 : en:01:09:56.400
01:14:52.738 : en:01:14:52.738
01:20:44.214 : en:01:20:44.214
01:25:59.571 : en:01:25:59.571

pb.wtf



Скачать План побега 2 через торрент http://pic1.kartinco.top/images/11/lwpy8.jpg Скачать фильм План побега 2 через торрент бесплантно в хорошем качестве Описание: Новая, самая современная тюрьма, из которой не сбежать. Ему снова брошен вызов! Он вернулся, чтобы выручить напарника и доказать, ... 9 10 20
Info! Золотая раздача, скачанное не засчитывается.
Торрент: Зарегистрирован [2018-08-12 21:10] · скачан: 805 раз
Статус: √ проверено
Размер: 8.51 GB
Как cкачать? Как скачать План побега 2 через торрент | qTorrent

% Раздел Тема Автор DL S | L
Ultra HD (UHD: 2K, 4K, 8K) — видео сверхвысокой чёткости [ 23.45 GB ] План побега 2 / Escape Plan 2: Hades [2018 UHD WEBRip 2160p] MVO [HDRezka Studio] + bober100 Скачать
1 | 0
Фильмы [HD 720p, 1080p] (Хороший звук DUB, MVO) [ 5.84 GB ] План побега 2 / Escape Plan 2: Hades [2018 BDRip-HEVC 1080p ] bober100 Скачать
1 | 0
Фильмы 2018 [DVDrip, WEB-DLRip, HDrip] (DUB, MVO) [ 1.42 GB ] План побега 2 / Escape Plan 2: Hades [2018 BDRip] - Twi7ter Скачать
63 | 4
Фильмы [HD 720p, 1080p] (Хороший звук DUB, MVO) [ 3.83 GB ] План побега 2 / Escape Plan 2: Hades [2018 BDRip 720p] bober100 Скачать
11 | 0
Фильмы 2018 [DVDrip, WEB-DLRip, HDrip] (DUB, MVO) [ 1.87 GB ] План побега 2 / Escape Plan 2: Hades [2018 BDRip-AVC] MVO [HDRezka Studio] + bober100 Скачать
2 | 0
Фильмы (Blu-ray, BD-Remux, HDDVD) [ 25.47 GB ] План побега 2 / Escape Plan 2: Hades [2018 BD Remux 1080p] bober100 Скачать
3 | 0
Фильмы 2018 [DVDrip, WEB-DLRip, HDrip] (DUB, MVO) [ 746 MB ] План побега 2 / Escape Plan 2: Hades [2018 BDRip] bober100 Скачать
1 | 0

28-11-2019 20:33  

Отключить всю рекламу на сайте

13-08-2018 08:24 План побега 2 Скачать торрент  

Вот и качество подкатило - Спасибо!)))pb.wtf



13-08-2018 10:17 План побега 2 Скачать торрент  

Первая часть норм.Пару раз пересматривал,вторая часть гамно полное.pb.wtf



13-08-2018 11:41 План побега 2 Скачать торрент  

Вторая часть такая дичь это просто такой бред как еще блин сталлоне согласился в этом шлаке снятся!pb.wtf



13-08-2018 12:18 План побега 2 Скачать торрент  

Супермега дорогущие технологичные тюрьмы для содержания зеков, по логике сколько бабла на них бы ушло, будь это в реале? Проще пулю в лоб.pb.wtf



14-08-2018 05:26 План побега 2 Скачать торрент  

jiggajigga писал(а):

Супермега дорогущие технологичные тюрьмы для содержания зеков, по логике сколько бабла на них бы ушло, будь это в реале? Проще пулю в лоб.

Частные тюрьмы - это самый стабильный и очень прибыльный бизнес в США!
Именно по этому в США, дают самые большие сроки за преступления!pb.wtf



14-08-2018 14:16 План побега 2 Скачать торрент  

плохой фильм, не советуюpb.wtf



22-08-2018 14:18 План побега 2 Скачать торрент  

Давно такого бреда не смотрел )). Тоже не советую. Первая часть - совсем другой фильм.pb.wtf



    Дорогой пользователь! Огромная просьба, поблагодарите релизера, оцените раздачу и оставьте свои комментарий, если Вы скачали План побега 2 через торрент бесплатно! Внесите свою лепту в развитие PiratBit!
    Комментировать посты могут только пользователи прошедшие не сложную регистрацию
    Показать сообщения:    

    План побега 2 через торрент
    Скачать бесплатно План побега 2
    План побега 2 скачать торрент
    План побега 2 смотреть онлайн
    Cкачать фильм План побега 2 бесплатно
    План побега 2 скачать торрент в хорошем качестве
    План побега 2 смотреть онлайн бесплатно в хорошем качестве


    Вы не можете начинать темы
    Вы не можете отвечать на сообщения
    Вы не можете редактировать свои сообщения
    Вы не можете удалять свои сообщения
    Вы не можете голосовать в опросах
    Вы не можете прикреплять файлы к сообщениям
    Вы можете скачивать файлы