Ссылка на приватное зеркало нашего сайта всего за 1$. Внимание количество ограничено!!!

2 сезон

iTunes

1 сезон

1

2 сезон

2 сезон

iTunes

1 сезон

RePack

30

Новинка

ВАЖНО

ИГРА 18+

pack

RePack

MK11
pack

Забери бонус

RePack

jed

!!Акция!!

Alien_Rage

RePack

fifa19

RePack

Assassins Creed: Odyssey

RePack

NEED FOR SPEED™ PAYBACK

4 сезон

9 сезон

Бесстыжие 9 сезон

Все сериалы

все сериалы на PB.wtf

RePack

FAR CRY 5
  

План побега 2 / Escape Plan 2: Hades (Стивен С. Миллер) [2018, боевик, триллер, BD Remux 1080p] DUB [iTunes] pb.wtf

План побега 2 через торрент pb.wtf

Размер: 25.47 GB | Добавлен: 2 года 3 мес. назад | Торрент скачан:109 раз
Скачать  

12-08-2018 21:23 План побега 2 Скачать торрент  

План побега 2 / Escape Plan 2: Hades
Год выпуска: 2018
Страна: Китай, США
Жанр: боевик, триллер
Продолжительность: 01:33:37
Перевод: Профессиональный многоголосый | iTunes
Субтитры: Английские

Режиссер: Стивен С. Миллер

rating

В ролях:

Дэйв Батиста, Байли Каррен, Сильвестр Сталлоне, Джейми Кинг, Уэс Чэтэм, Титус Уэлливер, Джесси Меткалф, Фифти Сент, Винсент Янг, Лидия Халл

Описание:

Новая, самая современная тюрьма, из которой не сбежать. Ему снова брошен вызов! Он вернулся, чтобы выручить напарника и доказать, что для него нет невозможного. Добро пожаловать в АиД!

Качество: BD Remux 1080p
Формат: MKV

Видео: MPEG-4 AVC, 1920x1080, 34.5 Mbit/s, 23.976 fps
Аудио#1: 48 kHz, AC3, 5.1, 384 Kbps | iTunes | RUS |
Аудио#2: 48 kHz, DTS-HD MA, 5.1, 4108 Kbps | Оригинал | ENG |

General
Unique ID : 239923109044857827042439260636108743928 (0xB47F828FC0C85A1AA323049B615AE4F8)
Complete name : D:\Video111\Escape.Plan.2.Hades.2018.BDREMUX.1080p.ExKinoRay.mkv
Format : Matroska
Format version : Version 4 / Version 2
File size : 25.5 GiB
Duration : 1 h 33 min
Overall bit rate mode : Variable
Overall bit rate : 38.9 Mb/s
Movie name : Escape Plan 2 Hades 2018 from ExKinoRay
Encoded date : UTC 2018-08-12 21:04:38
Writing application : mkvmerge v7.3.0 ('Nouages') 64bit built on Oct 22 2014 18:53:34
Writing library : libebml v1.3.0 + libmatroska v1.4.1

Video
ID : 1
Format : AVC
Format/Info : Advanced Video Codec
Format profile : High@L4.1
Format settings : CABAC / 4 Ref Frames
Format settings, CABAC : Yes
Format settings, ReFrames : 4 frames
Format settings, GOP : M=1, N=12
Codec ID : V_MPEG4/ISO/AVC
Duration : 1 h 33 min
Bit rate mode : Variable
Bit rate : 34.5 Mb/s
Maximum bit rate : 37.0 Mb/s
Width : 1 920 pixels
Height : 1 080 pixels
Display aspect ratio : 16:9
Frame rate mode : Constant
Frame rate : 23.976 (24000/1001) FPS
Color space : YUV
Chroma subsampling : 4:2:0
Bit depth : 8 bits
Scan type : Progressive
Bits/(Pixel*Frame) : 0.693
Stream size : 22.5 GiB (88%)
Language : English
Default : Yes
Forced : No

Audio #1
ID : 2
Format : AC-3
Format/Info : Audio Coding 3
Commercial name : Dolby Digital
Codec ID : A_AC3
Duration : 1 h 33 min
Bit rate mode : Constant
Bit rate : 384 kb/s
Channel(s) : 6 channels
Channel positions : Front: L C R, Side: L R, LFE
Sampling rate : 48.0 kHz
Frame rate : 31.250 FPS (1536 SPF)
Bit depth : 16 bits
Compression mode : Lossy
Stream size : 257 MiB (1%)
Title : iTunes
Language : Russian
Service kind : Complete Main
Default : Yes
Forced : Yes

Audio #2
ID : 3
Format : DTS
Format/Info : Digital Theater Systems
Format profile : MA / Core
Codec ID : A_DTS
Duration : 1 h 33 min
Bit rate mode : Variable / Constant
Bit rate : 4 108 kb/s / 1 509 kb/s
Channel(s) : 6 channels
Channel positions : Front: L C R, Side: L R, LFE
Sampling rate : 48.0 kHz
Frame rate : 93.750 FPS (512 SPF)
Bit depth : 24 bits
Compression mode : Lossless / Lossy
Stream size : 2.69 GiB (11%)
Title : Original
Language : English
Default : No
Forced : No

Text #1
ID : 4
Format : UTF-8
Codec ID : S_TEXT/UTF8
Codec ID/Info : UTF-8 Plain Text
Duration : 1 h 24 min
Bit rate : 44 b/s
Count of elements : 846
Stream size : 27.4 KiB (0%)
Title : Full
Language : English
Default : No
Forced : No

Text #2
ID : 5
Format : UTF-8
Codec ID : S_TEXT/UTF8
Codec ID/Info : UTF-8 Plain Text
Duration : 1 h 24 min
Bit rate : 47 b/s
Count of elements : 939
Stream size : 29.7 KiB (0%)
Title : SDH
Language : English
Default : No
Forced : No

Menu
00:00:00.000 : en:00:00:00.000
00:05:48.890 : en:00:05:48.890
00:12:17.445 : en:00:12:17.445
00:16:28.988 : en:00:16:28.988
00:22:49.368 : en:00:22:49.368
00:27:16.134 : en:00:27:16.134
00:34:32.654 : en:00:34:32.654
00:40:00.398 : en:00:40:00.398
00:46:51.600 : en:00:46:51.600
00:51:58.949 : en:00:51:58.949
00:58:57.242 : en:00:58:57.242
01:04:10.013 : en:01:04:10.013
01:09:56.400 : en:01:09:56.400
01:14:52.738 : en:01:14:52.738
01:20:44.214 : en:01:20:44.214
01:25:59.571 : en:01:25:59.571

pb.wtf



Скачать План побега 2 через торрент http://pic1.kartinco.top/images/11/lwpy8.jpg Скачать фильм План побега 2 через торрент бесплантно в хорошем качестве Описание: Новая, самая современная тюрьма, из которой не сбежать. Ему снова брошен вызов! Он вернулся, чтобы выручить напарника и доказать, ... 10 10 4
Торрент: Зарегистрирован [2018-08-12 21:23] · скачан: 109 раз
Статус: √ проверено
Размер: 25.47 GB
Как cкачать? Как скачать План побега 2 через торрент | qTorrent

% Раздел Тема Автор DL S | L
Ultra HD (UHD: 2K, 4K, 8K) — видео сверхвысокой чёткости [ 23.45 GB ] План побега 2 / Escape Plan 2: Hades [2018 UHD WEBRip 2160p] MVO [HDRezka Studio] + bober100 Скачать
1 | 0
Фильмы [HD 720p, 1080p] (Хороший звук DUB, MVO) [ 5.84 GB ] План побега 2 / Escape Plan 2: Hades [2018 BDRip-HEVC 1080p ] bober100 Скачать
1 | 0
Фильмы 2018 [DVDrip, WEB-DLRip, HDrip] (DUB, MVO) [ 1.42 GB ] План побега 2 / Escape Plan 2: Hades [2018 BDRip] - Twi7ter Скачать
7 | 1
Фильмы [HD 720p, 1080p] (Хороший звук DUB, MVO) [ 8.51 GB ] План побега 2 / Escape Plan 2: Hades [2018 BDRip 1080p] bober100 Скачать
2 | 0
Фильмы [HD 720p, 1080p] (Хороший звук DUB, MVO) [ 3.83 GB ] План побега 2 / Escape Plan 2: Hades [2018 BDRip 720p] bober100 Скачать
1 | 0
Фильмы 2018 [DVDrip, WEB-DLRip, HDrip] (DUB, MVO) [ 1.87 GB ] План побега 2 / Escape Plan 2: Hades [2018 BDRip-AVC] MVO [HDRezka Studio] + bober100 Скачать
1 | 0
Фильмы 2018 [DVDrip, WEB-DLRip, HDrip] (DUB, MVO) [ 746 MB ] План побега 2 / Escape Plan 2: Hades [2018 BDRip] bober100 Скачать
1 | 0

28-11-2019 20:33  

Отключить всю рекламу на сайте

    Дорогой пользователь! Огромная просьба, поблагодарите релизера, оцените раздачу и оставьте свои комментарий, если Вы скачали План побега 2 через торрент бесплатно! Внесите свою лепту в развитие PiratBit!
    Комментировать посты могут только пользователи прошедшие не сложную регистрацию
    Показать сообщения:    

    План побега 2 через торрент
    Скачать бесплатно План побега 2
    План побега 2 скачать торрент
    План побега 2 смотреть онлайн
    Cкачать фильм План побега 2 бесплатно
    План побега 2 скачать торрент в хорошем качестве
    План побега 2 смотреть онлайн бесплатно в хорошем качестве


    Вы не можете начинать темы
    Вы не можете отвечать на сообщения
    Вы не можете редактировать свои сообщения
    Вы не можете удалять свои сообщения
    Вы не можете голосовать в опросах
    Вы не можете прикреплять файлы к сообщениям
    Вы можете скачивать файлы