новый адрес
Ссылка на приватное зеркало всего за 1$. Внимание количество ограничено!!!

iTunes

1+1

iTunes

мы

WEB-DL

1

iTunes

Чернобыль

iTunes

Ральф против интернета

Лицензия

ПШазам

Лицензия

Оно 2

Лицензия

30
pack

Вам бонус

ВАЖНО

!!Акция!!

Alien_RageХит недели

RePack

Resident Evil 21

ИГРА 18+

pack

RePack

jed

!!Акция!!

Alien_Rage

RePack

fifa19

RePack

Assassins Creed: Odyssey

RePack

NEED FOR SPEED™ PAYBACK

3 сезон

9 сезон

Бесстыжие 9 сезон

Все сериалы

все сериалы на PB.wtf

RePack

FAR CRY 5
Ребята, катастрофически не хватает 1900р. для оплаты серверов за Октябрь (всвязи с блокировками трафик упал в 3 раза), 1-2р., выручайте.
  

За двумя зайцами (Виктор Иванов) [1961, СССР, мюзикл, комедия, HDTVRip от AVP Studio] pb.wtf

За двумя зайцами через торрент pb.wtf

Размер: 1.09 GB | Добавлен: 1 год 3 мес. назад | Торрент скачан:16 раз
Скачать  

13-08-2018 17:47 За двумя зайцами Скачать торрент  

За двумя зайцами
Страна: СССР
Производство: К/ст им. А. Довженко

Жанр: мюзикл, комедия
Год выпуска: 1961
Продолжительность: 01:11:57

Перевод: Не требуется
Cубтитры: нет
Оригинальная аудиодорожка: русский

Режиссер: Виктор Иванов

В ролях:
Олег Борисов, Маргарита Криницына, Николай Яковченко, Анна Кушниренко, Нонна Копержинская, Наталья Наум, Анатолий Юрченко, Таисия Литвиненко, Константин Ершов, Ольга Викландт...
Об актёрах подробней

Описание:
По одноименной комедии М. П. Старицкого
О киевском цирюльнике Голохвастом (Олег Борисов), одновременно приударяющим за богатой и некрасивой Проней (Маргарита Криницына), и бедной красавицей Галей. В фильме множество смешных ситуаций, фраз, ставших крылатыми, удачных находок, актеры играют с таким вдохновением, что фильм можно смело называть классикой отечественной кинокомедии.


Источник: HDTV 1080i
Качество видео: HDTVRip
Формат видео: AVI

Видео: 720x528 (1.364:1), 25,000 кадров/сек, XviD ~ 1769 kbps avg, 0.186 bit/pixel
Аудио: 48 kHz, Dolby Digital AC3 5.1, 384 kbps Русский
Аудио: 48 kHz, Dolby Digital AC3 2.0, 192 kbps Украинский Скачать

Раздача от:
Общее
Полное имя : Za.dvumya.zaycami.1961.HDTVRip_[New-team]_by_AVP_Studio.avi
Формат : AVI
Формат/Информация : Audio Video Interleave
Размер файла : 1,09 Гбайт
Продолжительность : 1 ч. 11 м.
Общий поток : 2163 Кбит/сек
Программа кодирования : VirtualDubMod 1.5.10.3 | www.virtualdub-fr.org || (build 2550/release)
Библиотека кодирования : VirtualDubMod build 2550/release

Видео
Идентификатор : 0
Формат : MPEG-4 Visual
Профиль формата : Advanced Simple@L5
Настройки формата : BVOP1 / Custom Matrix
Параметр BVOP формата : 1
Параметр QPel формата : Нет
Параметр GMC формата : Без точки перехода
Параметр матрицы формата : Выборочная
Идентификатор кодека : XVID
Идентификатор кодека/Подсказка : XviD
Продолжительность : 1 ч. 11 м.
Битрейт : 1769 Кбит/сек
Ширина : 720 пикселей
Высота : 528 пикселей
Соотношение сторон : 1.364:1
Частота кадров : 25,000 кадров/сек
Цветовое пространство : YUV
Субдискретизация насыщенности : 4:2:0
Битовая глубина : 8 бит
Тип развёртки : Прогрессивная
Метод сжатия : С потерями
Бит/(Пиксели*Кадры) : 0.186
Размер потока : 911 Мбайт (82%)
Библиотека кодирования : XviD 73

Аудио
Идентификатор : 1
Формат : AC-3
Формат/Информация : Audio Coding 3
Идентификатор кодека : 2000
Продолжительность : 1 ч. 11 м.
Вид битрейта : Постоянный
Битрейт : 384 Кбит/сек
Каналы : 6 каналов
Расположение каналов : Front: L C R, Side: L R, LFE
Частота : 48,0 КГц
Частота кадров : 31,250 кадров/сек (1536 SPF)
Битовая глубина : 16 бит
Метод сжатия : С потерями
Размер потока : 198 Мбайт (18%)
Выравнивание : Разделение по промежуткам
Продолжительность промежутка : 40 мс. (1,00 видеокадр)
Время предзагрузки промежутка : 500 мс
pb.wtf



Скачать За двумя зайцами через торрент http://picplus.ru/img/1808/13/2abb7698.png Скачать фильм За двумя зайцами через торрент бесплантно в хорошем качестве Описание:По одноименной комедии М. П. СтарицкогоО киевском цирюльнике Голохвастом (Олег Борисов), одновременно приударяющим за богатой и ... 10 10 2
Info! Золотая раздача, скачанное не засчитывается.
Торрент: Зарегистрирован [2018-08-13 17:47] · скачан: 16 раз
Статус: √ проверено
Размер: 1.09 GB
Как cкачать? Как скачать За двумя зайцами через торрент | qTorrent

% Раздел Тема Автор DL S | L
Кино СССР [ 1.09 GB ] За двумя зайцами [1961 СССР мюзикл HDTVRip-AVC от AVP Studio] AVP Studio Скачать
1 | 0
Кино СССР [ 1.46 GB ] За двумя зайцами [1961 СССР мюзикл HDTVRip 720p от AVP Studio] AVP Studio Скачать
1 | 0

28-11-2019 20:33  

Отключить всю рекламу на сайте

    Дорогой пользователь! Огромная просьба, поблагодарите релизера, оцените раздачу и оставьте свои комментарий, если Вы скачали За двумя зайцами через торрент бесплатно! Внесите свою лепту в развитие PiratBit!
    Комментировать посты могут только пользователи прошедшие не сложную регистрацию
    Показать сообщения:    

    За двумя зайцами через торрент
    Скачать бесплатно За двумя зайцами
    За двумя зайцами скачать торрент
    За двумя зайцами смотреть онлайн
    Cкачать фильм За двумя зайцами бесплатно
    За двумя зайцами скачать торрент в хорошем качестве
    За двумя зайцами смотреть онлайн бесплатно в хорошем качестве


    Вы не можете начинать темы
    Вы не можете отвечать на сообщения
    Вы не можете редактировать свои сообщения
    Вы не можете удалять свои сообщения
    Вы не можете голосовать в опросах
    Вы не можете прикреплять файлы к сообщениям
    Вы можете скачивать файлы