новый адрес
Мега распродажа FORZA HORIZON 4 ULTIMATE+ВСЕ DLC+ОНЛАЙН всего за 499р. 349 руб. (супер цена). Внимание количество ограничено!!!

iTunes

1+1

iTunes

мы

iTunes

1

iTunes

Чернобыль

iTunes

Ральф против интернета

Лицензия

ПШазам

Лицензия

Оно 2

Лицензия

30
pack

ВАЖНО

!!Акция!!

Alien_RageХит недели

RePack

Resident Evil 21

ИГРА 18+

pack

RePack

Metro:Exodus

!!Акция!!

Alien_Rage

RePack

fifa19

RePack

Assassins Creed: Odyssey

RePack

NEED FOR SPEED™ PAYBACK

3 сезон

9 сезон

Бесстыжие 9 сезон

Все сериалы

все сериалы на PB.wtf

RePack

FAR CRY 5
Ребята, катастрофически не хватает 1900р. для оплаты серверов за Октябрь (всвязи с блокировками трафик упал в 3 раза), 1-2р., выручайте.
  

За двумя зайцами (Виктор Иванов) [1961, СССР, мюзикл, комедия, HDTVRip 720p от AVP Studio] pb.wtf

За двумя зайцами через торрент pb.wtf

Размер: 1.46 GB | Добавлен: 1 год 3 мес. назад | Торрент скачан:56 раз
Скачать  

13-08-2018 17:49 За двумя зайцами Скачать торрент  

За двумя зайцами
Страна: СССР
Производство: К/ст им. А. Довженко

Жанр: мюзикл, комедия
Год выпуска: 1961
Продолжительность: 01:11:57

Перевод: Не требуется
Cубтитры: нет
Оригинальная аудиодорожка: русский

Режиссер: Виктор Иванов

В ролях:
Олег Борисов, Маргарита Криницына, Николай Яковченко, Анна Кушниренко, Нонна Копержинская, Наталья Наум, Анатолий Юрченко, Таисия Литвиненко, Константин Ершов, Ольга Викландт...
Об актёрах подробней

Описание:
По одноименной комедии М. П. Старицкого
О киевском цирюльнике Голохвастом (Олег Борисов), одновременно приударяющим за богатой и некрасивой Проней (Маргарита Криницына), и бедной красавицей Галей. В фильме множество смешных ситуаций, фраз, ставших крылатыми, удачных находок, актеры играют с таким вдохновением, что фильм можно смело называть классикой отечественной кинокомедии.


Источник: HDTV 1080i
Качество видео: HDTVRip 720p
Формат видео: MKV

Видео: 984x720 (1.366:1), 25,000 кадров/сек, H264 ~ 2517 kbps avg, 0.142 bit/pixel
Аудио: 48 kHz, Dolby Digital AC3 5.1, 384 kbps Русский
Аудио: 48 kHz, Dolby Digital AC3 2.0, 192 kbps Украинский Скачать

Раздача от:
Общее
Полное имя : Za.dvumya.zaycami.1961.HDTVRip-720p_[New-team]_by_AVP_Studio.mkv
Формат : Matroska
Версия формата : Version 2
Размер файла : 1,46 Гбайт
Продолжительность : 1 ч. 11 м.
Общий поток : 2903 Кбит/сек
Дата кодирования : UTC 2018-08-12 14:09:32
Программа кодирования : mkvmerge v6.1.0 ('Old Devil') built on Mar 4 2013 09:10:42
Библиотека кодирования : libebml v1.3.0 + libmatroska v1.4.0

Видео
Идентификатор : 1
Формат : AVC
Формат/Информация : Advanced Video Codec
Профиль формата : High@L4.1
Настройки формата : CABAC / 8 Ref Frames
Параметр CABAC формата : Да
Параметр RefFrames формата : 8 кадров
Идентификатор кодека : V_MPEG4/ISO/AVC
Продолжительность : 1 ч. 11 м.
Битрейт : 2517 Кбит/сек
Ширина : 984 пикселя
Высота : 720 пикселей
Соотношение сторон : 1.366:1
Режим частоты кадров : Постоянный
Частота кадров : 25,000 кадров/сек
Цветовое пространство : YUV
Субдискретизация насыщенности : 4:2:0
Битовая глубина : 8 бит
Тип развёртки : Прогрессивная
Бит/(Пиксели*Кадры) : 0.142
Размер потока : 1,24 Гбайт (85%)
Библиотека кодирования : x264 core 130 r2273 b3065e6
Настройки программы : cabac=1 / ref=8 / deblock=1:-3:-3 / analyse=0x3:0x133 / me=umh / subme=10 / psy=1 / psy_rd=1.00:0.00 / mixed_ref=1 / me_range=32 / chroma_me=1 / trellis=2 / 8x8dct=1 / cqm=0 / deadzone=21,11 / fast_pskip=1 / chroma_qp_offset=-2 / threads=6 / lookahead_threads=1 / sliced_threads=0 / nr=0 / decimate=0 / interlaced=0 / bluray_compat=0 / constrained_intra=0 / bframes=8 / b_pyramid=2 / b_adapt=2 / b_bias=0 / direct=3 / weightb=1 / open_gop=0 / weightp=2 / keyint=250 / keyint_min=25 / scenecut=40 / intra_refresh=0 / rc=2pass / mbtree=0 / bitrate=2517 / ratetol=1.0 / qcomp=0.60 / qpmin=0 / qpmax=69 / qpstep=4 / cplxblur=20.0 / qblur=0.5 / ip_ratio=1.40 / pb_ratio=1.30 / aq=1:1.00
Default : Да
Forced : Нет

Аудио
Идентификатор : 2
Формат : AC-3
Формат/Информация : Audio Coding 3
Идентификатор кодека : A_AC3
Продолжительность : 1 ч. 11 м.
Вид битрейта : Постоянный
Битрейт : 384 Кбит/сек
Каналы : 6 каналов
Расположение каналов : Front: L C R, Side: L R, LFE
Частота : 48,0 КГц
Частота кадров : 31,250 кадров/сек (1536 SPF)
Битовая глубина : 16 бит
Метод сжатия : С потерями
Размер потока : 198 Мбайт (13%)
Default : Да
Forced : Нет
pb.wtf



Скачать За двумя зайцами через торрент http://picplus.ru/img/1808/13/2abb7698.png Скачать фильм За двумя зайцами через торрент бесплантно в хорошем качестве Описание:По одноименной комедии М. П. СтарицкогоО киевском цирюльнике Голохвастом (Олег Борисов), одновременно приударяющим за богатой и ... 10 10 2
Info! Золотая раздача, скачанное не засчитывается.
Торрент: Зарегистрирован [2018-08-13 17:49] · скачан: 56 раз
Статус: √ проверено
Размер: 1.46 GB
Как cкачать? Как скачать За двумя зайцами через торрент | qTorrent

% Раздел Тема Автор DL S | L
Кино СССР [ 1.09 GB ] За двумя зайцами [1961 СССР мюзикл HDTVRip-AVC от AVP Studio] AVP Studio Скачать
1 | 0
Кино СССР [ 1.09 GB ] За двумя зайцами [1961 СССР мюзикл HDTVRip от AVP Studio] AVP Studio Скачать
1 | 0


>> Регистрируемся здесь <<






Отзывы и комментарии о схеме читаем и пишем здесь: ---> Отзывы и комментарии о схеме

Новые благодарочки в телеграм довольных пользователей:
скриншот   скриншот   скриншот   скриншот   скриншот
    Дорогой пользователь! Огромная просьба, поблагодарите релизера, оцените раздачу и оставьте свои комментарий, если Вы скачали За двумя зайцами через торрент бесплатно! Внесите свою лепту в развитие PiratBit!
    Комментировать посты могут только пользователи прошедшие не сложную регистрацию
    Показать сообщения:    

    За двумя зайцами через торрент
    Скачать бесплатно За двумя зайцами
    За двумя зайцами скачать торрент
    За двумя зайцами смотреть онлайн
    Cкачать фильм За двумя зайцами бесплатно
    За двумя зайцами скачать торрент в хорошем качестве
    За двумя зайцами смотреть онлайн бесплатно в хорошем качестве


    Вы не можете начинать темы
    Вы не можете отвечать на сообщения
    Вы не можете редактировать свои сообщения
    Вы не можете удалять свои сообщения
    Вы не можете голосовать в опросах
    Вы не можете прикреплять файлы к сообщениям
    Вы можете скачивать файлы