Anonymous, добрый день, присоединяйтесь к нам в Telegram!, здесь всегда актуальный адрес сайта, оперативная поддержка и многое другое!

>

5.6

iTunes

7.4

iTunes

5.7

MVO

1

7.7

1 сезон

6.8

iTunes

7.3

1 сезон

13

6.7

1 сезон

8.3

RePack

30

ULTIMATE

pack

9.9

Лицензия

ВАЖНО

ИГРА 18+

pack

7.3

RePack

MK11

7.7

RePack

jed

7.8

RePack

fifa19

8.5

RePack

RDR2

RePack

NEED FOR SPEED™ PAYBACK

4 сезон

9 сезон

Бесстыжие 9 сезон

Все сериалы

все сериалы на PB.wtf

RePack

FAR CRY 5

Anonymous, добрый день, мы катастрофически не успеваем собрать деньги на оплату серверов, помогите нам пожалуйста 5,10,15р., для нас важна любая помощь . В качестве благодарности мы отключим Вам всю рекламу на сайте (укажите свой ник в строку Ваше имя)!

×
  
Magnet ссылка

Деффчонки / Сезон: 6 / Серии: 1-24 из 24 (Нигина Сайфуллаева, Ольга Френкель, Сергей Корягин) [2018, Ситком, комедия, SATRip] pb.wtf

Деффчонки через торрент pb.wtf

Размер: 7.4 GB | Добавлен: 3 года 1 мес. назад | Торрент скачан:79 раз
Смотреть онлайн Деффчонки | Скачать    Ребята, помогите собрать деньги на оплату серверов!!!

14-08-2018 02:48 Деффчонки Скачать торрент  

Деффчонки
Год выпуска: 2018
Страна: Россия
Жанр: Ситком, комедия
Продолжительность: ~ 00:25:00
Субтитры: отсутствуют

Режиссер: Нигина Сайфуллаева, Ольга Френкель, Сергей Корягин

rating

В ролях:

Александр Касаткин (II), Софья Урицкая, Тимур Боканча, Алексей Воробьёв, Александр Серов, Наталья Унгард, Родион Юрин, Таисия Вилкова, Полина Максимова, Анастасия Денисова, Галина Боб

Описание:

Деффчонки мечтавшие о яркой и красивой жизни в Москве, и так долго идущие к своей цели, оказались в итоге… в Саратове. У каждой на то свои причины: так, молодая мамочка Бобылич уехала к семье, потому что Звонарь решил принять участие в шоу «Завидный жених». И теперь Маша Бобылкина сидит дома с сыном, пока любимый мужчина обнимается с красотками на съемках шоу. От обиды Маша решила вспомнить молодость и встретилась со своей первой любовью. Активная карьеристка Пална устроилась в руководство крупного Саратовского завода. Ее рабочие решения постоянно вызывают приступы гнева у директора завода, берущего взятки и планирующего мошенничество вместе с губернатором. Параллельно у Палны образуется весьма бурная личная жизнь. Гламурная блондинка Леля снова пытается найти себе олигарха, но в итоге находит отца, с которым давно потеряла связь. По иронии судьбы, он как раз является олигархом и готов помочь дочери деньгами, но полностью наслаждаться новым статусом Леле мешает сводная сестра – подросток.

Качество: SATRip
Формат: AVI

Видео: XviD, ~ 1650 Кбит/с, 720x400
Аудио: MP3, 2 ch, 192 Кбит/с
скриншот   скриншот   скриншот   скриншот   скриншот   скриншот   скриншот  
скриншот  

Общее
Полное имя : E:\Deffchonki.6.sezon.XviD.SATRip.25Kuzmich\Deffchonki.s06.e01.XviD.SATRip.25Kuzmich.avi
Формат : AVI
Формат/Информация : Audio Video Interleave
Размер файла : 344 Мбайт
Продолжительность : 26 м. 0 с.
Общий поток : 1850 Кбит/сек
Программа кодирования : VirtualDubMod 1.5.10.3 (build 2550/release)
Библиотека кодирования : VirtualDubMod build 2550/release

Видео
Идентификатор : 0
Формат : MPEG-4 Visual
Профиль формата : Advanced Simple@L5
Настройки формата : BVOP1 / Custom Matrix
Параметр BVOP формата : 1
Параметр QPel формата : Нет
Параметр GMC формата : Без точки перехода
Параметр матрицы формата : Выборочная
Идентификатор кодека : XVID
Идентификатор кодека/Подсказка : XviD
Продолжительность : 26 м. 0 с.
Битрейт : 1649 Кбит/сек
Ширина : 720 пикселей
Высота : 400 пикселей
Соотношение сторон : 16:9
Частота кадров : 25,000 кадров/сек
Цветовое пространство : YUV
Субдискретизация насыщенности : 4:2:0
Битовая глубина : 8 бит
Тип развёртки : Прогрессивная
Метод сжатия : С потерями
Бит/(Пиксели*Кадры) : 0.229
Размер потока : 307 Мбайт (89%)
Библиотека кодирования : XviD 1.2.1 (UTC 2008-12-04)

Аудио
Идентификатор : 1
Формат : MPEG Audio
Версия формата : Version 1
Профиль формата : Layer 3
Настройки формата : Joint stereo
Идентификатор кодека : 55
Идентификатор кодека/Подсказка : MP3
Продолжительность : 26 м. 0 с.
Вид битрейта : Постоянный
Битрейт : 192 Кбит/сек
Каналы : 2 канала
Частота : 48,0 КГц
Частота кадров : 41,667 кадра/сек (1152 SPF)
Метод сжатия : С потерями
Размер потока : 35,7 Мбайт (10%)
Выравнивание : Соединение по промежуткам
Продолжительность промежутка : 40 мс. (1,00 видеокадр)
Время предзагрузки промежутка : 504 мс.
Библиотека кодирования : LAME3.99r
Настройки программы : -m j -V 4 -q 2 -lowpass 18.6 -b 192

Внимание! Раздача ведётся путём добавления новых серий; при каждом добавлении создаётся новый торрент.
Чтобы начать докачку новой серии, пользователям необходимо сделать следующее:
1. Остановить скачивание;
2. Удалить старый торрент у себя из клиента (старые серии удалять не надо);
3. Скачать новый торрент и запустить его у себя в клиенте вместо старого, при этом указать клиенту путь в старую папку куда и должно происходить скачивание новых серий. Ваш клиент при этом должен произвести хеширование (проверку) старой папки и будет докачивать только те серии, которых у вас ещё нет. Старые серии при этом не удаляются, а продолжают раздаваться! Eсли вы уже удалили старые серии, то предотвратить повторную закачку старых серий можно, отжав галочку в соответствующих местах при запуске нового торрента.
pb.wtf



Скачать Деффчонки через торрент https://pic1.kartinco.top/images/11/whskq.jpg Скачать, смотреть онлайн Деффчонки бесплантно в хорошем качестве Описание: Деффчонки мечтавшие о яркой и красивой жизни в Москве, и так долго идущие к своей цели, оказались в итоге… в Саратове. У каждой ... 10 10 4
Торрент: Зарегистрирован [2018-08-30 13:10] · скачан: 79 раз
Статус: √ проверено
Размер: 7.4 GB
Как cкачать? Как скачать Деффчонки через торрент | UTorrent

% Раздел Тема Автор DL S | L
TNT serials [ 16.75 GB ] Деффчонки / Сезон: 6 / Серии: 1-24 из 24 [2018 ситком HDTVRip 720p] bober100 Скачать
1 | 0
TNT serials [ 8.76 GB ] Деффчонки / Сезон: 6 / Серии: 1-24 из 24 [2018 Ситком HDTVRip-AVC] bober100 Скачать
1 | 0

28-11-2019 20:33  

Отключить всю рекламу на сайте

    Дорогой пользователь! Огромная просьба, поблагодарите релизера, оцените раздачу и оставьте свои комментарий, если Вы скачали Деффчонки через торрент бесплатно!
    Комментировать посты могут только пользователи прошедшие не сложную регистрацию
    Показать сообщения:    

    Деффчонки через торрент
    Скачать бесплатно Деффчонки
    Деффчонки скачать торрент
    Деффчонки смотреть онлайн
    Cкачать фильм Деффчонки бесплатно
    Деффчонки скачать торрент в хорошем качестве
    Деффчонки смотреть онлайн бесплатно в хорошем качестве


    Вы не можете начинать темы
    Вы не можете отвечать на сообщения
    Вы не можете редактировать свои сообщения
    Вы не можете удалять свои сообщения
    Вы не можете голосовать в опросах
    Вы не можете прикреплять файлы к сообщениям
    Вы можете скачивать файлы