Ссылка на приватное зеркало нашего сайта всего за 1$. Внимание количество ограничено!!!

2 сезон

iTunes

1 сезон

1

2 сезон

2 сезон

iTunes

1 сезон

RePack

30

Ultimate

ВАЖНО

ИГРА 18+

pack

RePack

MK11
pack

Забери бонус

RePack

jed

!!Акция!!

Alien_Rage

RePack

fifa19

RePack

Assassins Creed: Odyssey

RePack

NEED FOR SPEED™ PAYBACK

4 сезон

9 сезон

Бесстыжие 9 сезон

Все сериалы

все сериалы на PB.wtf

RePack

FAR CRY 5
  

Катись! / Whip It (Дрю Бэрримор) [2009, драма, спорт, BDRip 720p by msltel] DUB pb.wtf

Катись! через торрент pb.wtf

Размер: 4.06 GB | Добавлен: 2 года 3 мес. назад | Торрент скачан:29 раз
Скачать  

14-08-2018 06:53 Катись! Скачать торрент  

Название: Катись!
Оригинальное название: Whip It
Год выпуска: 2009
Страна: США
Жанр: драма, спорт
Продолжительность: 01:50:43
Перевод: дублированный

Режиссер: Дрю Бэрримор
В ролях: Эллен Пейдж, Алиа Шокат, Марша Гей Харден, Кристен Уиг, Дрю Бэрримор, Джульетт Льюис, Джимми Фэллон, Дэниэл Стерн, Лэндон Пигг, Ив (I), Сара Хабель, Шеннон Иген, Эдвард Остин, Мэри Каллахэн Линч, Барбара Ковен, Евлала Шил, Нина Кирхер, Марк Бойд, Карло Элбан, Майкл Петрилло, Шон О’Рейли, Кент Камминс, Сара Яигер, Хлоя Трухарт, Женев Харрисон, Йонас Стейн, Макс Ван Пиблз, Зои Белл, Эндрю Уилсон, Расти Мьюха, Уилл Брик, Мэдж Левинсон, Эли Блейлер, Кристен Адольфи, Эри Грейнор, Сидни Беннетт, Дэнни Муни, Брент Кайл, Шон Тиллман, Клаудия Роджерс, Уоллес Бриджес, Остин Бикел

О фильме: Блисс, вечная неудачница и тихоня, живёт в маленьком унылом городке. Мать беспрерывно таскает её на конкурсы красоты, которые Блисс не суждено выиграть. Похоже, что из этого омута вырваться невозможно… Но однажды судьба заставляет героиню изменить свою жизнь и стать по-настоящему крутой девчонкой...



Качество: BDRip 720p
Формат: MKV
Видео: MPEG-4 AVC, 4485 Kбит/с, 1280х534, 23.976 кадр/с
Аудио 1: русский, AC3, 384 kbps, 6 ch, 48 kHz [дублированный]
Аудио 2: английский, AC3, 384 kbps, 6 ch, 48 kHz [оригинал]
Субтитры 1: русские
Субтитры 2: английские
Главы/чаптеры
Общее
Уникальный идентификатор : 179873074095164969786407325264626204555 (0x87524B40E3BAB1A29FE22390E2BE3F8B)
Полное имя : D:\Video\Катись.2009.BDRip.720p by msltel.mkv
Формат : Matroska
Версия формата : Version 4 / Version 2
Размер файла : 4,06 Гбайт
Продолжительность : 1 ч. 50 м.
Общий поток : 5255 Кбит/сек
Название фильма : Rip by msltel
Дата кодирования : UTC 2018-08-13 05:33:59
Программа кодирования : mkvmerge v8.2.0 ('World of Adventure') 64bit
Библиотека кодирования : libebml v1.3.1 + libmatroska v1.4.2

Видео
Идентификатор : 1
Формат : AVC
Формат/Информация : Advanced Video Codec
Профиль формата : High@L4.1
Настройки формата : CABAC / 9 Ref Frames
Параметр CABAC формата : Да
Параметр RefFrames формата : 9 кадров
Идентификатор кодека : V_MPEG4/ISO/AVC
Продолжительность : 1 ч. 50 м.
Битрейт : 4485 Кбит/сек
Ширина : 1280 пикселей
Высота : 534 пикселя
Соотношение сторон : 2,40:1
Режим частоты кадров : Постоянный
Частота кадров : 23,976 (24000/1001) кадра/сек
Цветовое пространство : YUV
Субдискретизация насыщенности : 4:2:0
Битовая глубина : 8 бит
Тип развёртки : Прогрессивная
Бит/(Пиксели*Кадры) : 0.274
Размер потока : 3,47 Гбайт (85%)
Библиотека кодирования : x264 core 155 r2901 7d0ff22
Настройки программы : cabac=1 / ref=9 / deblock=1:-3:-2 / analyse=0x3:0x113 / me=umh / subme=11 / psy=1 / psy_rd=1.00:0.15 / mixed_ref=1 / me_range=32 / chroma_me=1 / trellis=2 / 8x8dct=1 / cqm=0 / deadzone=21,11 / fast_pskip=0 / chroma_qp_offset=-3 / threads=6 / lookahead_threads=1 / sliced_threads=0 / nr=0 / decimate=1 / interlaced=0 / bluray_compat=0 / constrained_intra=0 / bframes=9 / b_pyramid=2 / b_adapt=2 / b_bias=0 / direct=1 / weightb=1 / open_gop=0 / weightp=2 / keyint=230 / keyint_min=23 / scenecut=40 / intra_refresh=0 / rc_lookahead=40 / rc=crf / mbtree=1 / crf=16.5 / qcomp=0.60 / qpmin=0 / qpmax=69 / qpstep=4 / vbv_maxrate=62500 / vbv_bufsize=78125 / crf_max=0.0 / nal_hrd=none / filler=0 / ip_ratio=1.40 / aq=1:1.00
Язык : English
Default : Да
Forced : Нет

Аудио #1
Идентификатор : 2
Формат : AC-3
Формат/Информация : Audio Coding 3
Идентификатор кодека : A_AC3
Продолжительность : 1 ч. 50 м.
Вид битрейта : Постоянный
Битрейт : 384 Кбит/сек
Каналы : 6 каналов
Расположение каналов : Front: L C R, Side: L R, LFE
Частота : 48,0 КГц
Частота кадров : 31,250 кадров/сек (1536 SPF)
Битовая глубина : 16 бит
Метод сжатия : С потерями
Размер потока : 304 Мбайт (7%)
Заголовок : DUB
Язык : Russian
ServiceKind/String : Complete Main
Default : Да
Forced : Нет

Аудио #2
Идентификатор : 3
Формат : AC-3
Формат/Информация : Audio Coding 3
Идентификатор кодека : A_AC3
Продолжительность : 1 ч. 50 м.
Вид битрейта : Постоянный
Битрейт : 384 Кбит/сек
Каналы : 6 каналов
Расположение каналов : Front: L C R, Side: L R, LFE
Частота : 48,0 КГц
Частота кадров : 31,250 кадров/сек (1536 SPF)
Битовая глубина : 16 бит
Метод сжатия : С потерями
Размер потока : 304 Мбайт (7%)
Заголовок : original
Язык : English
ServiceKind/String : Complete Main
Default : Нет
Forced : Нет

Текст #1
Идентификатор : 4
Формат : UTF-8
Идентификатор кодека : S_TEXT/UTF8
Идентификатор кодека/Информация : UTF-8 Plain Text
Продолжительность : 1 ч. 44 м.
Битрейт : 102 бит/сек
ElementCount : 1396
Размер потока : 78,4 Кбайт (0%)
Заголовок : русские
Язык : Russian
Default : Нет
Forced : Нет

Текст #2
Идентификатор : 5
Формат : UTF-8
Идентификатор кодека : S_TEXT/UTF8
Идентификатор кодека/Информация : UTF-8 Plain Text
Продолжительность : 1 ч. 50 м.
Битрейт : 71 бит/сек
ElementCount : 1791
Размер потока : 57,8 Кбайт (0%)
Заголовок : английские
Язык : English
Default : Нет
Forced : Нет

Меню
00:00:00.000 : en:Chapter 01
00:08:10.393 : en:Chapter 02
00:16:44.073 : en:Chapter 03
00:25:06.534 : en:Chapter 04
00:34:46.071 : en:Chapter 05
00:44:35.493 : en:Chapter 06
00:52:40.394 : en:Chapter 07
01:01:52.195 : en:Chapter 08
01:09:41.915 : en:Chapter 09
01:16:35.870 : en:Chapter 10
01:27:16.009 : en:Chapter 11
01:38:32.185 : en:Chapter 12
01:45:55.211 : en:Chapter 13
pb.wtf



Скачать Катись! через торрент https://d.radikal.ru/d06/1808/74/f2514f0cf3d0.jpg Скачать фильм Катись! через торрент бесплантно в хорошем качестве О фильме: Блисс, вечная неудачница и тихоня, живёт в маленьком унылом городке. Мать беспрерывно таскает её на конкурсы красоты, которые ... 5 10 1
Info! Золотая раздача, скачанное не засчитывается.
Торрент: Зарегистрирован [2018-08-14 06:53] · скачан: 29 раз
Статус: √ проверено
Размер: 4.06 GB
Как cкачать? Как скачать Катись! через торрент | qTorrent

% Раздел Тема Автор DL S | L
Фильмы [HD 720p, 1080p] (Хороший звук DUB, MVO) [ 11.33 GB ] Катись! / Whip It [2009 BDRip 1080p by msltel] DUB msltel Скачать
1 | 0

28-11-2019 20:33  

Отключить всю рекламу на сайте

    Дорогой пользователь! Огромная просьба, поблагодарите релизера, оцените раздачу и оставьте свои комментарий, если Вы скачали Катись! через торрент бесплатно! Внесите свою лепту в развитие PiratBit!
    Комментировать посты могут только пользователи прошедшие не сложную регистрацию
    Показать сообщения:    

    Катись! через торрент
    Скачать бесплатно Катись!
    Катись! скачать торрент
    Катись! смотреть онлайн
    Cкачать фильм Катись! бесплатно
    Катись! скачать торрент в хорошем качестве
    Катись! смотреть онлайн бесплатно в хорошем качестве


    Вы не можете начинать темы
    Вы не можете отвечать на сообщения
    Вы не можете редактировать свои сообщения
    Вы не можете удалять свои сообщения
    Вы не можете голосовать в опросах
    Вы не можете прикреплять файлы к сообщениям
    Вы можете скачивать файлы