MEGA SALE -50% FORZA HORIZON 4 ULTIMATE+ВСЕ DLC+ОНЛАЙН всего за 599р. 299 руб. (супер цена). Внимание количество ограничено!!!

iTunes

1+1

iTunes

мы

iTunes

1

iTunes

Чернобыль

iTunes

Ральф против интернета

Лицензия

ПШазам

Лицензия

Игра престолов

Лицензия

30
pack

ВАЖНО

!!Акция!!

Alien_RageХит недели

RePack

Resident Evil 21

ИГРА 18+

pack

RePack

Metro:Exodus

!!Акция!!

Alien_Rage

RePack

fifa19

RePack

Assassins Creed: Odyssey

RePack

NEED FOR SPEED™ PAYBACK

3 сезон

9 сезон

Бесстыжие 9 сезон

Все сериалы

все сериалы на PB.wtf

RePack

FAR CRY 5
Ребята, катастрофически не хватает 7730р. для оплаты серверов за ИЮЛЬ (всвязи с блокировками трафик упал в 3 раза), 1-2р., выручайте.
  

Авалон / Avalon (Мамору Осии) [2001, фантастика, фэнтези, боевик, триллер, драма, BDRip 1080p by msltel] 3 x DVO pb.wtf

Авалон через торрент pb.wtf

Размер: 13.18 GB | Добавлен: 1 год назад | Торрент скачан:2 раза
Скачать  

14-08-2018 09:15 Авалон Скачать торрент  

Название: Авалон
Оригинальное название: Avalon
Год выпуска: 2001
Страна: Япония, Польша
Жанр: фантастика, фэнтези, боевик, триллер, драма
Продолжительность: 01:46:54
Перевод: профессиональный двухголосый

Режиссер: Мамору Осии
В ролях: Малгожата Форемняк, Владислав Ковальский, Ежи Гудейко, Дариуш Бискупский, Катажина Баргеловска, Алиция Сапрык, Адам Шишковский

О фильме: В отдалённом будущем человечество осваивает виртуальный мир компьютерной игры под названием «Авалон». Лишь немногим удаётся достичь в игре финального уровня, а те, кто возвращаются с него, впадают в коматозное состояние, почти не отличающееся от смерти. Чтобы попытаться спасти своего возлюбленного от этой участи, героиня фильма преисполнена решимости пройти всю игру по его стопам и встретиться в финале с загадочным персонажем по имени «Призрак»...



Качество: BDRip 1080p
Формат: MKV
Видео: MPEG-4 AVC, 14.9 Mбит/с, 1920x1036
Аудио 1: русский, AC3, 448 kbps, 6 ch, 48 kHz [закадровый двухголосый, CP-Digital]
Аудио 2: русский, AC3, 384 kbps, 6 ch, 48 kHz [закадровый двухголосый, вариант 1]
Аудио 3: русский, AC3, 384 kbps, 6 ch, 48 kHz [закадровый двухголосый, вариант 2]
Аудио 4: польский, DTS, 1509 kbps, 7/6 ch, 48 kHz [оригинал]
Субтитры 1: русские
Субтитры 2: английские
Главы/чаптеры
Общее
Уникальный идентификатор : 211041716061173389334676210828691152048 (0x9EC527F2BE1B8B0CACC9F34840009CB0)
Полное имя : D:\Video\Avalon.2001.BDRip.1080p by msltel.mkv
Формат : Matroska
Версия формата : Version 4 / Version 2
Размер файла : 13,2 Гбайт
Продолжительность : 1 ч. 47 м.
Общий поток : 17,6 Мбит/сек
Название фильма : Rip by msltel
Дата кодирования : UTC 2018-08-13 05:13:10
Программа кодирования : mkvmerge v8.2.0 ('World of Adventure') 64bit
Библиотека кодирования : libebml v1.3.1 + libmatroska v1.4.2

Видео
Идентификатор : 1
Формат : AVC
Формат/Информация : Advanced Video Codec
Профиль формата : High@L4.1
Настройки формата : CABAC / 4 Ref Frames
Параметр CABAC формата : Да
Параметр RefFrames формата : 4 кадра
Идентификатор кодека : V_MPEG4/ISO/AVC
Продолжительность : 1 ч. 46 м.
Битрейт : 14,9 Мбит/сек
Ширина : 1920 пикселей
Высота : 1036 пикселей
Соотношение сторон : 1,85:1
Режим частоты кадров : Постоянный
Частота кадров : 23,976 (24000/1001) кадра/сек
Цветовое пространство : YUV
Субдискретизация насыщенности : 4:2:0
Битовая глубина : 8 бит
Тип развёртки : Прогрессивная
Бит/(Пиксели*Кадры) : 0.313
Размер потока : 11,1 Гбайт (85%)
Библиотека кодирования : x264 core 155 r2901 7d0ff22
Настройки программы : cabac=1 / ref=4 / deblock=1:-3:-2 / analyse=0x3:0x113 / me=umh / subme=11 / psy=1 / psy_rd=1.00:0.15 / mixed_ref=1 / me_range=32 / chroma_me=1 / trellis=2 / 8x8dct=1 / cqm=0 / deadzone=21,11 / fast_pskip=0 / chroma_qp_offset=-3 / threads=6 / lookahead_threads=1 / sliced_threads=0 / nr=0 / decimate=1 / interlaced=0 / bluray_compat=0 / constrained_intra=0 / bframes=15 / b_pyramid=2 / b_adapt=2 / b_bias=0 / direct=1 / weightb=1 / open_gop=0 / weightp=2 / keyint=230 / keyint_min=23 / scenecut=40 / intra_refresh=0 / rc_lookahead=40 / rc=crf / mbtree=1 / crf=15.9 / qcomp=0.60 / qpmin=0 / qpmax=69 / qpstep=4 / vbv_maxrate=62500 / vbv_bufsize=78125 / crf_max=0.0 / nal_hrd=none / filler=0 / ip_ratio=1.40 / aq=1:1.00
Язык : Polish
Default : Да
Forced : Нет

Аудио #1
Идентификатор : 2
Формат : AC-3
Формат/Информация : Audio Coding 3
Идентификатор кодека : A_AC3
Продолжительность : 1 ч. 46 м.
Вид битрейта : Постоянный
Битрейт : 448 Кбит/сек
Каналы : 6 каналов
Расположение каналов : Front: L C R, Side: L R, LFE
Частота : 48,0 КГц
Частота кадров : 31,250 кадров/сек (1536 SPF)
Битовая глубина : 16 бит
Метод сжатия : С потерями
Размер потока : 341 Мбайт (3%)
Заголовок : DVO CP-Digital
Язык : Russian
ServiceKind/String : Complete Main
Default : Да
Forced : Нет

Аудио #2
Идентификатор : 3
Формат : AC-3
Формат/Информация : Audio Coding 3
Идентификатор кодека : A_AC3
Продолжительность : 1 ч. 46 м.
Вид битрейта : Постоянный
Битрейт : 384 Кбит/сек
Каналы : 6 каналов
Расположение каналов : Front: L C R, Side: L R, LFE
Частота : 48,0 КГц
Частота кадров : 31,250 кадров/сек (1536 SPF)
Битовая глубина : 16 бит
Метод сжатия : С потерями
Размер потока : 292 Мбайт (2%)
Заголовок : DVO вариант 1
Язык : Russian
ServiceKind/String : Complete Main
Default : Нет
Forced : Нет

Аудио #3
Идентификатор : 4
Формат : AC-3
Формат/Информация : Audio Coding 3
Идентификатор кодека : A_AC3
Продолжительность : 1 ч. 46 м.
Вид битрейта : Постоянный
Битрейт : 384 Кбит/сек
Каналы : 6 каналов
Расположение каналов : Front: L C R, Side: L R, LFE
Частота : 48,0 КГц
Частота кадров : 31,250 кадров/сек (1536 SPF)
Битовая глубина : 16 бит
Метод сжатия : С потерями
Размер потока : 293 Мбайт (2%)
Заголовок : DVO вариант 2
Язык : Russian
ServiceKind/String : Complete Main
Default : Нет
Forced : Нет

Аудио #4
Идентификатор : 5
Формат : DTS
Формат/Информация : Digital Theater Systems
Профиль формата : ES Discrete / Core
Идентификатор кодека : A_DTS
Продолжительность : 1 ч. 47 м.
Вид битрейта : Постоянный
Битрейт : 1509 Кбит/сек
Каналы : 7 каналов / 6 каналов
Расположение каналов : Front: L C R, Side: L R, Back: C, LFE / Front: L C R, Side: L R, LFE
Частота : 48,0 КГц
Частота кадров : 93,750 кадра/сек (512 SPF)
Битовая глубина : 24 бит
Метод сжатия : С потерями
Размер потока : 1,13 Гбайт (9%)
Заголовок : original
Язык : Polish
Default : Нет
Forced : Нет

Текст #1
Идентификатор : 6
Формат : ASS
Идентификатор кодека : S_TEXT/ASS
Идентификатор кодека/Информация : Advanced Sub Station Alpha
Продолжительность : 1 ч. 40 м.
Битрейт : 56 бит/сек
ElementCount : 567
Метод сжатия : Без потерь
Размер потока : 41,5 Кбайт (0%)
Заголовок : русские
Язык : Russian
Default : Нет
Forced : Нет

Текст #2
Идентификатор : 7
Формат : UTF-8
Идентификатор кодека : S_TEXT/UTF8
Идентификатор кодека/Информация : UTF-8 Plain Text
Продолжительность : 1 ч. 32 м.
Битрейт : 18 бит/сек
ElementCount : 450
Размер потока : 12,7 Кбайт (0%)
Заголовок : английские
Язык : English
Default : Нет
Forced : Нет

Меню
00:00:00.000 : en:00:00:00.000
00:10:31.464 : en:00:10:31.464
00:18:01.121 : en:00:18:01.121
00:23:37.916 : en:00:23:37.916
00:27:40.700 : en:00:27:40.700
00:33:11.531 : en:00:33:11.531
00:39:22.360 : en:00:39:22.360
00:43:30.482 : en:00:43:30.482
00:48:29.740 : en:00:48:29.740
00:54:06.910 : en:00:54:06.910
00:59:59.137 : en:00:59:59.137
01:07:23.247 : en:01:07:23.247
01:16:14.278 : en:01:16:14.278
01:20:41.503 : en:01:20:41.503
01:28:07.156 : en:01:28:07.156
01:38:48.923 : en:01:38:48.923
pb.wtf



Скачать Авалон через торрент https://a.radikal.ru/a31/1808/89/051c9046b396.jpg Скачать фильм Авалон через торрент бесплантно в хорошем качестве О фильме: В отдалённом будущем человечество осваивает виртуальный мир компьютерной игры под названием «Авалон». Лишь немногим удаётся ... 5 10 1
Info! Золотая раздача, скачанное не засчитывается.
Торрент: Зарегистрирован [2018-08-14 09:15] · скачан: 2 раз
Статус: √ проверено
Размер: 13.18 GB
Как cкачать? Как скачать Авалон через торрент | qTorrent

% Раздел Тема Автор DL S | L
Азиатские фильмы [ 5.42 GB ] Авалон / Avalon [2001 BDRip 720p by msltel] 3 x DVO msltel Скачать
2 | 1


>> Регистрируемся здесь <<






Отзывы и комментарии о схеме читаем и пишем здесь: ---> Отзывы и комментарии о схеме

Новые благодарочки в телеграм довольных пользователей:
скриншот   скриншот   скриншот   скриншот   скриншот
    Дорогой пользователь! Огромная просьба, поблагодарите релизера, оцените раздачу и оставьте свои комментарий, если Вы скачали Авалон через торрент бесплатно! Внесите свою лепту в развитие PiratBit!
    Комментировать посты могут только пользователи прошедшие не сложную регистрацию
    Показать сообщения:    

    Авалон через торрент
    Скачать бесплатно Авалон
    Авалон скачать торрент
    Авалон смотреть онлайн
    Cкачать фильм Авалон бесплатно
    Авалон скачать торрент в хорошем качестве
    Авалон смотреть онлайн бесплатно в хорошем качестве


    Вы не можете начинать темы
    Вы не можете отвечать на сообщения
    Вы не можете редактировать свои сообщения
    Вы не можете удалять свои сообщения
    Вы не можете голосовать в опросах
    Вы не можете прикреплять файлы к сообщениям
    Вы можете скачивать файлы