Мега распродажа FORZA HORIZON 4 ULTIMATE+ВСЕ DLC+ОНЛАЙН всего за 499р. 349 руб. (супер цена). Внимание количество ограничено!!!

iTunes

1+1

iTunes

мы

iTunes

1

iTunes

Чернобыль

1 сезон

Ральф против интернета

Лицензия

ПШазам

Лицензия

Игра престолов

Лицензия

30
pack

ВАЖНО

!!Акция!!

Alien_RageХит недели

RePack

Resident Evil 21

ИГРА 18+

pack

RePack

Metro:Exodus

!!Акция!!

Alien_Rage

RePack

fifa19

RePack

Assassins Creed: Odyssey

RePack

NEED FOR SPEED™ PAYBACK

3 сезон

9 сезон

Бесстыжие 9 сезон

Все сериалы

все сериалы на PB.wtf

RePack

FAR CRY 5
Ребята, катастрофически не хватает 7730р. для оплаты серверов за ИЮЛЬ (всвязи с блокировками трафик упал в 3 раза), 1-2р., выручайте.
  

Затерянные в космосе / Lost in Space / Сезон: 1 / Серии: 1-10 из 10 (Тим Соутэм) [2018, Фантастика, семейный, WEBRip 720p] MVO [Good People] pb.wtf

Затерянные в космосе через торрент pb.wtf

Размер: 15.75 GB | Добавлен: 1 год назад | Торрент скачан:35 раз
Скачать  

14-08-2018 09:35 Затерянные в космосе Скачать торрент  

Затерянные в космосе / Lost in Space Оригинальное название: Lost in Space
Русское название: Затерянные в космосе
Год выпуска: 2018
Страна: США
Жанр: Фантастика, семейный
Продолжительность: 01:00:00 мин.
Перевод: Профессиональный (многоголосый закадровый) | Good People
Субтитры: Да (английские)

Режиссёр: Тим Соутэм, Дебора Чоу, Элис Тротон

В ролях:

Мина Сандвол, Молли Паркер, Тоби Стивенс, Паркер Поузи, Макс Дженкинс, Тейлор Расселл, Игнасио Серричио, Амелия Берстин, Раза Джеффри, Аджай Парих-Фризе и другие

Описание:

Семейство Робинсонов отправилось в авантюрное путешествие к другой планете через необъятное космическое пространство. Правда, непредвиденные обстоятельства меняют планы главных героев, заставляя тех сбиться с маршрута и оказаться в десятках световых лет от цели. Робинсонам предстоит провести непростые годы на судне, где придется бороться со страхом неизвестности и отчаянием, а также терпеть друг друга, ведь каждый то и делает, что ищет возможность обвинить ближнего во всех бедах. Помимо этих проблем героев ждут неожиданные встречи в открытом космосе, которые заставят лишний раз сплотиться экипажу корабля ради спасения.

rating

Качество: WEBRip 720p
Формат: MKV
Видео кодек: AVC
Аудио кодек: AC3

Видео: AVC, 1280x640, 23.976fps, ~4404kbps, 0.204 bit/pixel
Аудио 1: Dolby AC3 48000Hz 6ch 448 Kbps Русский
Аудио 2: Dolby AC3 48000Hz 6ch 448 Kbps Оригинал


Реклама: Присутствует звуковая (два раза в начале и конце по 12 сек.)
General
Unique ID                   : 201990763813257132886864501440964083740 (0x97F6018C9BAFF8AA841748AB3812401C)
Complete name               : Lost.in.Space.2018.S01E01.Impact.720p.NF.WEBRip.DDP5.1.x264-GoodPeople.mkv
Format                      : Matroska
Format version              : Version 4 / Version 2
File size                   : 2.18 GiB
Duration                    : 1h 3mn
Overall bit rate            : 4 900 Kbps
Encoded date                : UTC 2018-08-13 22:27:19
Writing application         : mkvmerge v17.0.0 ('Be Ur Friend') 64-bit
Writing library             : libebml v1.3.5 + libmatroska v1.4.8
DURATION                    : 01:02:45.472000000
NUMBER_OF_FRAMES            : 117671
NUMBER_OF_BYTES             : 210866432
_STATISTICS_WRITING_APP     : mkvmerge v17.0.0 ('Be Ur Friend') 64-bit
_STATISTICS_WRITING_DATE_UT : 2018-08-13 22:27:19
_STATISTICS_TAGS            : BPS DURATION NUMBER_OF_FRAMES NUMBER_OF_BYTES

Video
ID                          : 1
Format                      : AVC
Format/Info                 : Advanced Video Codec
Format profile              : High@L4.1
Format settings, CABAC      : Yes
Format settings, ReFrames   : 10 frames
Codec ID                    : V_MPEG4/ISO/AVC
Duration                    : 1h 3mn
Bit rate                    : 3 907 Kbps
Width                       : 1 280 pixels
Height                      : 640 pixels
Display aspect ratio        : 2.000
Frame rate mode             : Constant
Frame rate                  : 23.976 fps
Color space                 : YUV
Chroma subsampling          : 4:2:0
Bit depth                   : 8 bits
Scan type                   : Progressive
Bits/(Pixel*Frame)          : 0.199
Stream size                 : 1.74 GiB (80%)
Writing library             : x264 core 152 r2851kMod ba24899
Encoding settings           : cabac=1 / ref=10 / deblock=1:-3:-3 / analyse=0x3:0x133 / me=umh / subme=10 / psy=1 / fade_compensate=0.00 / psy_rd=1.00:0.00 / mixed_ref=1 / me_range=48 / chroma_me=1 / trellis=2 / 8x8dct=1 / cqm=0 / deadzone=21,11 / fast_pskip=0 / chroma_qp_offset=-2 / threads=12 / lookahead_threads=2 / sliced_threads=0 / nr=0 / decimate=0 / interlaced=0 / bluray_compat=0 / constrained_intra=0 / bframes=8 / b_pyramid=2 / b_adapt=2 / b_bias=0 / direct=3 / weightb=1 / open_gop=0 / weightp=2 / keyint=250 / keyint_min=23 / scenecut=40 / intra_refresh=0 / rc=crf / mbtree=0 / crf=18.0000 / qcomp=0.60 / qpmin=0 / qpmax=69 / qpstep=4 / ip_ratio=1.30 / pb_ratio=1.20 / aq=3:0.80
Language                    : English
Default                     : Yes
Forced                      : No
DURATION                    : 01:03:36.188000000
NUMBER_OF_FRAMES            : 91497
NUMBER_OF_BYTES             : 1914739487
_STATISTICS_WRITING_APP     : mkvmerge v17.0.0 ('Be Ur Friend') 64-bit
_STATISTICS_WRITING_DATE_UT : 2018-08-13 22:27:19
_STATISTICS_TAGS            : BPS DURATION NUMBER_OF_FRAMES NUMBER_OF_BYTES

Audio #1
ID                          : 2
Format                      : AC-3
Format/Info                 : Audio Coding 3
Mode extension              : CM (complete main)
Format settings, Endianness : Big
Codec ID                    : A_AC3
Duration                    : 1h 3mn
Bit rate mode               : Constant
Bit rate                    : 448 Kbps
Channel(s)                  : 6 channels
Channel positions           : Front: L C R, Side: L R, LFE
Sampling rate               : 48.0 KHz
Compression mode            : Lossy
Stream size                 : 204 MiB (9%)
Language                    : Russian
Default                     : Yes
Forced                      : No

Audio #2
ID                          : 3
Format                      : E-AC-3
Format/Info                 : Audio Coding 3
Format settings, Endianness : Big
Codec ID                    : A_EAC3
Duration                    : 1h 3mn
Bit rate mode               : Constant
Bit rate                    : 448 Kbps
Channel(s)                  : 6 channels
Channel positions           : Front: L C R, Side: L R, LFE
Sampling rate               : 48.0 KHz
Compression mode            : Lossy
Stream size                 : 204 MiB (9%)
Language                    : English
Default                     : No
Forced                      : No

Text
ID                          : 4
Format                      : UTF-8
Codec ID                    : S_TEXT/UTF8
Codec ID/Info               : UTF-8 Plain Text
Language                    : English
Default                     : No
Forced                      : No
pb.wtf



Скачать Затерянные в космосе через торрент http://img11.lostpic.net/2018/08/09/da6a97715e280786f82a50c0ee5b5533.jpg Скачать фильм Затерянные в космосе через торрент бесплантно в хорошем качестве Описание: Семейство Робинсонов отправилось в авантюрное путешествие к другой планете через необъятное космическое пространство. Правда, ... 10 10 2
Торрент: Зарегистрирован [2018-08-14 09:35] · скачан: 35 раз
Статус: √ проверено
Размер: 15.75 GB
Как cкачать? Как скачать Затерянные в космосе через торрент | qTorrent

% Раздел Тема Автор DL S | L
Зарубежные сериалы [ 15.72 GB ] Затерянные в космосе / Lost in Space / Сезон: 1 / Серии: 1-10 из 10 [2018 WEBRip 1080p] MVO [LostFilm] bober100 Скачать
2 | 0
Зарубежные сериалы [ 7.02 GB ] Затерянные в космосе / Lost in Space / Сезон: 1 / Серии: 1-10 из 10 [2018 WEBRip] MVO [LostFilm] bober100 Скачать
4 | 0
Зарубежные сериалы [ 15.48 GB ] Затерянные в космосе / Lost in Space / Сезон: 1 / Серии: 1-10 из 10 [2018 WEBRip 1080p] MVO [TVShows] bober100 Скачать
2 | 0
Зарубежные сериалы [ 9.33 GB ] Затерянные в космосе / Lost in Space / Сезон: 1 / Серии: 1-10 из 10 [2018 WEBRip] [MVO] killermax2013 Скачать
2 | 0
Зарубежные сериалы [ 6.73 GB ] Затерянные в космосе / Lost in Space / Сезон: 1 / Серии: 1-10 из 10 [2018 WEBRip] MVO [Good People] bober100 Скачать
1 | 0
Зарубежные сериалы [ 67.55 GB ] Затерянные в космосе / Lost in Space / Сезон: 1 / Серии: 1-10 из 10 [2018 UHD WEBRip 2160p] MVO [BaibaKo] sheker187 Скачать
1 | 0
Видео для КПК и Смартфонов [ 2.05 GB ] Затерянные в космосе / Lost in Space / Сезон: 1 / Серии: 1-10 из 10 [2018 WEBRip КПК] MVO [LostFilm] sergey82 Скачать
2 | 0


>> Регистрируемся здесь <<






Отзывы и комментарии о схеме читаем и пишем здесь: ---> Отзывы и комментарии о схеме

Новые благодарочки в телеграм довольных пользователей:
скриншот   скриншот   скриншот   скриншот   скриншот
    Дорогой пользователь! Огромная просьба, поблагодарите релизера, оцените раздачу и оставьте свои комментарий, если Вы скачали Затерянные в космосе через торрент бесплатно! Внесите свою лепту в развитие PiratBit!
    Комментировать посты могут только пользователи прошедшие не сложную регистрацию
    Показать сообщения:    

    Затерянные в космосе через торрент
    Скачать бесплатно Затерянные в космосе
    Затерянные в космосе скачать торрент
    Затерянные в космосе смотреть онлайн
    Cкачать фильм Затерянные в космосе бесплатно
    Затерянные в космосе скачать торрент в хорошем качестве
    Затерянные в космосе смотреть онлайн бесплатно в хорошем качестве


    Вы не можете начинать темы
    Вы не можете отвечать на сообщения
    Вы не можете редактировать свои сообщения
    Вы не можете удалять свои сообщения
    Вы не можете голосовать в опросах
    Вы не можете прикреплять файлы к сообщениям
    Вы можете скачивать файлы