Ссылка на приватное зеркало всего за 1$. Внимание количество ограничено!!!

iTunes

1+1

iTunes

мы

WEB-DL

1

iTunes

Чернобыль

iTunes

Ральф против интернета

Лицензия

ПШазам

Лицензия

Оно 2

Лицензия

30
pack

Вам бонус

ВАЖНО

!!Акция!!

Alien_RageХит недели

RePack

Resident Evil 21

ИГРА 18+

pack

RePack

jed

!!Акция!!

Alien_Rage

RePack

fifa19

RePack

Assassins Creed: Odyssey

RePack

NEED FOR SPEED™ PAYBACK

3 сезон

9 сезон

Бесстыжие 9 сезон

Все сериалы

все сериалы на PB.wtf

RePack

FAR CRY 5
Ребята, катастрофически не хватает 1900р. для оплаты серверов за Октябрь (всвязи с блокировками трафик упал в 3 раза), 1-2р., выручайте.
  

Человек-амфибия (Владимир Чеботарев, Геннадий Казанский) [1961, СССР, фантастика, драма, мелодрама, BDRip от AVP Studio] pb.wtf

Человек-амфибия через торрент pb.wtf

Размер: 1.46 GB | Добавлен: 1 год 3 мес. назад | Торрент скачан:13 раз
Скачать  

14-08-2018 10:47 Человек-амфибия Скачать торрент  

Человек-амфибия
Страна: СССР
Производство: Ленфильм

Жанр: фантастика, драма, мелодрама
Год выпуска: 1961
Продолжительность: 01:36:21

Перевод: Не требуется
Cубтитры: нет
Оригинальная аудиодорожка: русский

Режиссер: Владимир Чеботарев, Геннадий Казанский

В ролях:
Владимир Коренев, Анастасия Вертинская, Михаил Козаков, Николай Симонов, Владлен Давыдов, Анатолий Смиранин, Анатолий Иванов, Валерий Кудряшов, Николай Кузьмин, Михаил Медведев, Юрий Медведев, Анна Никритина, Георгий Тусузов, Александр Захаров, Алексей Захаров, Станислав Чекан, Тито Ромалио...
Об актёрах подробней

Описание:
Далекая южная страна взбудоражена появлением в прибрежных водах таинственного серебристого существа, которого молва окрестила "морским дьяволом". Владелец шхуны для ловли жемчуга, жестокий и властный дон Педро Зурита (Михаил Козаков), решает выследить и поймать это существо. Тем временем его невеста, прекрасная Гуттиэре, знакомится со странным молодым человеком по имени Ихтиандр...

Источник: Blu-ray 1080p
Качество видео: BDRip
Формат видео: AVI

Видео: 720x528 (1.364:1), 23,976 кадров/сек, XviD ~ 1712 kbps avg, 0.188 bit/pixel
Аудио: 48 kHz, Dolby Digital AC3 5.1, 448 kbps

Раздача от:
Общее
Полное имя : CHelovek-amfibiya.1961.BDRip_[New-team]_by_AVP_Studio.avi
Формат : AVI
Формат/Информация : Audio Video Interleave
Размер файла : 1,46 Гбайт
Продолжительность : 1 ч. 36 м.
Общий поток : 2169 Кбит/сек
Программа кодирования : VirtualDubMod 1.5.10.3 | www.virtualdub-fr.org || (build 2550/release)
Библиотека кодирования : VirtualDubMod build 2550/release

Видео
Идентификатор : 0
Формат : MPEG-4 Visual
Профиль формата : Advanced Simple@L5
Настройки формата : BVOP1 / Custom Matrix
Параметр BVOP формата : 1
Параметр QPel формата : Нет
Параметр GMC формата : Без точки перехода
Параметр матрицы формата : Выборочная
Идентификатор кодека : XVID
Идентификатор кодека/Подсказка : XviD
Продолжительность : 1 ч. 36 м.
Битрейт : 1712 Кбит/сек
Ширина : 720 пикселей
Высота : 528 пикселей
Соотношение сторон : 1.364:1
Частота кадров : 23,976 (24000/1001) кадра/сек
Цветовое пространство : YUV
Субдискретизация насыщенности : 4:2:0
Битовая глубина : 8 бит
Тип развёртки : Прогрессивная
Метод сжатия : С потерями
Бит/(Пиксели*Кадры) : 0.188
Размер потока : 1,15 Гбайт (79%)
Библиотека кодирования : XviD 73

Аудио
Идентификатор : 1
Формат : AC-3
Формат/Информация : Audio Coding 3
Идентификатор кодека : 2000
Продолжительность : 1 ч. 36 м.
Вид битрейта : Постоянный
Битрейт : 448 Кбит/сек
Каналы : 6 каналов
Расположение каналов : Front: L C R, Side: L R, LFE
Частота : 48,0 КГц
Частота кадров : 31,250 кадров/сек (1536 SPF)
Битовая глубина : 16 бит
Метод сжатия : С потерями
Размер потока : 309 Мбайт (21%)
Выравнивание : Разделение по промежуткам
Продолжительность промежутка : 42 мс. (1,00 видеокадр)
Время предзагрузки промежутка : 500 мс
pb.wtf



Скачать Человек-амфибия через торрент http://d.radikal.ru/d23/1911/02/41d22af0372d.png Скачать фильм Человек-амфибия через торрент бесплантно в хорошем качестве Описание:Далекая южная страна взбудоражена появлением в прибрежных водах таинственного серебристого существа, которого молва окрестила ... 10 10 1
Info! Золотая раздача, скачанное не засчитывается.
Торрент: Зарегистрирован [2018-08-14 10:47] · скачан: 13 раз
Статус: √ проверено
Размер: 1.46 GB
Как cкачать? Как скачать Человек-амфибия через торрент | qTorrent

% Раздел Тема Автор DL S | L
Кино СССР [ 1.46 GB ] Человек-амфибия [1961 СССР BDRip-AVC от AVP Studio] AVP Studio Скачать
1 | 0
Кино СССР [ 746 MB ] Человек-амфибия [1961 СССР BDRip от AVP Studio] AVP Studio Скачать
2 | 0
Кино СССР [ 2.18 GB ] Человек-амфибия [1961 СССР BDRip 720p от AVP Studio] AVP Studio Скачать
1 | 0
Наши фильмы (Blu-ray, BD-Remux, HDDVD) [ 20.43 GB ] Человек-амфибия [1961 BDRemux 1080р] -Lexx- Скачать
1 | 0
Наши фильмы (HD, WEB-DL 720p, 1080p) [ 9.22 GB ] Человек-амфибия [1961г ВDRip 1080p] diletant Скачать
1 | 0

28-11-2019 20:33  

Отключить всю рекламу на сайте

    Дорогой пользователь! Огромная просьба, поблагодарите релизера, оцените раздачу и оставьте свои комментарий, если Вы скачали Человек-амфибия через торрент бесплатно! Внесите свою лепту в развитие PiratBit!
    Комментировать посты могут только пользователи прошедшие не сложную регистрацию
    Показать сообщения:    

    Человек-амфибия через торрент
    Скачать бесплатно Человек-амфибия
    Человек-амфибия скачать торрент
    Человек-амфибия смотреть онлайн
    Cкачать фильм Человек-амфибия бесплатно
    Человек-амфибия скачать торрент в хорошем качестве
    Человек-амфибия смотреть онлайн бесплатно в хорошем качестве


    Вы не можете начинать темы
    Вы не можете отвечать на сообщения
    Вы не можете редактировать свои сообщения
    Вы не можете удалять свои сообщения
    Вы не можете голосовать в опросах
    Вы не можете прикреплять файлы к сообщениям
    Вы можете скачивать файлы