>

5.6

iTunes

6.1

MVO

5.7

MVO

1

7.4

1 сезон

6.8

iTunes

7.2

1 сезон

13

6.7

1 сезон

8.3

RePack

30

Deluxe

pack

9.9

Лицензия

ВАЖНО

ИГРА 18+

pack

7.3

RePack

MK11

7.7

RePack

jed

7.8

RePack

fifa19

8.5

RePack

RDR2

RePack

NEED FOR SPEED™ PAYBACK

4 сезон

9 сезон

Бесстыжие 9 сезон

Все сериалы

все сериалы на PB.wtf

RePack

FAR CRY 5

Anonymous, добрый вечер, мы катастрофически не успеваем собрать деньги на оплату серверов, помогите нам пожалуйста 5,10,15р., для нас важна любая помощь . В качестве благодарности мы отключим Вам всю рекламу на сайте (укажите свой ник в строку Ваше имя)!

×
  
Magnet ссылка

Человек-амфибия (Владимир Чеботарев, Геннадий Казанский) [1961, СССР, фантастика, драма, мелодрама, BDRip 720p от AVP Studio] pb.wtf

Человек-амфибия через торрент pb.wtf

Размер: 2.18 GB | Добавлен: 3 года 1 мес. назад | Торрент скачан:30 раз
Смотреть онлайн Человек-амфибия | Скачать    Ребята, помогите собрать деньги на оплату серверов!!!

14-08-2018 10:49 Человек-амфибия Скачать торрент  

Человек-амфибия
Страна: СССР
Производство: Ленфильм

Жанр: фантастика, драма, мелодрама
Год выпуска: 1961
Продолжительность: 01:36:21

Перевод: Не требуется
Cубтитры: нет
Оригинальная аудиодорожка: русский

Режиссер: Владимир Чеботарев, Геннадий Казанский

В ролях:
Владимир Коренев, Анастасия Вертинская, Михаил Козаков, Николай Симонов, Владлен Давыдов, Анатолий Смиранин, Анатолий Иванов, Валерий Кудряшов, Николай Кузьмин, Михаил Медведев, Юрий Медведев, Анна Никритина, Георгий Тусузов, Александр Захаров, Алексей Захаров, Станислав Чекан, Тито Ромалио...
Об актёрах подробней

Описание:
Далекая южная страна взбудоражена появлением в прибрежных водах таинственного серебристого существа, которого молва окрестила "морским дьяволом". Владелец шхуны для ловли жемчуга, жестокий и властный дон Педро Зурита (Михаил Козаков), решает выследить и поймать это существо. Тем временем его невеста, прекрасная Гуттиэре, знакомится со странным молодым человеком по имени Ихтиандр...

Источник: Blu-ray 1080p
Качество видео: BDRip 720p
Формат видео: MKV

Видео: 984x720 (1.367:1), 23,976 кадров/сек, H264 ~ 2787 kbps avg, 0.164 bit/pixel
Аудио: 48 kHz, Dolby Digital AC3 5.1, 448 kbps

Раздача от:
Общее
Полное имя : CHelovek-amfibiya.1961.BDRip-720p_[New-team]_by_AVP_Studio.mkv
Формат : Matroska
Версия формата : Version 2
Размер файла : 2,18 Гбайт
Продолжительность : 1 ч. 36 м.
Общий поток : 3237 Кбит/сек
Дата кодирования : UTC 2018-08-13 00:37:11
Программа кодирования : mkvmerge v6.1.0 ('Old Devil') built on Mar 4 2013 09:10:42
Библиотека кодирования : libebml v1.3.0 + libmatroska v1.4.0

Видео
Идентификатор : 1
Формат : AVC
Формат/Информация : Advanced Video Codec
Профиль формата : High@L4.1
Настройки формата : CABAC / 8 Ref Frames
Параметр CABAC формата : Да
Параметр RefFrames формата : 8 кадров
Идентификатор кодека : V_MPEG4/ISO/AVC
Продолжительность : 1 ч. 36 м.
Битрейт : 2787 Кбит/сек
Ширина : 984 пикселя
Высота : 720 пикселей
Соотношение сторон : 4:3
Режим частоты кадров : Постоянный
Частота кадров : 23,976 (24000/1001) кадра/сек
Цветовое пространство : YUV
Субдискретизация насыщенности : 4:2:0
Битовая глубина : 8 бит
Тип развёртки : Прогрессивная
Бит/(Пиксели*Кадры) : 0.164
Размер потока : 1,83 Гбайт (84%)
Библиотека кодирования : x264 core 130 r2273 b3065e6
Настройки программы : cabac=1 / ref=8 / deblock=1:-3:-3 / analyse=0x3:0x133 / me=umh / subme=10 / psy=1 / psy_rd=1.00:0.00 / mixed_ref=1 / me_range=32 / chroma_me=1 / trellis=2 / 8x8dct=1 / cqm=0 / deadzone=21,11 / fast_pskip=1 / chroma_qp_offset=-2 / threads=6 / lookahead_threads=1 / sliced_threads=0 / nr=0 / decimate=0 / interlaced=0 / bluray_compat=0 / constrained_intra=0 / bframes=8 / b_pyramid=2 / b_adapt=2 / b_bias=0 / direct=3 / weightb=1 / open_gop=0 / weightp=2 / keyint=240 / keyint_min=24 / scenecut=40 / intra_refresh=0 / rc=2pass / mbtree=0 / bitrate=2787 / ratetol=1.0 / qcomp=0.60 / qpmin=0 / qpmax=69 / qpstep=4 / cplxblur=20.0 / qblur=0.5 / ip_ratio=1.40 / pb_ratio=1.30 / aq=1:1.00
Default : Да
Forced : Нет

Аудио
Идентификатор : 2
Формат : AC-3
Формат/Информация : Audio Coding 3
Идентификатор кодека : A_AC3
Продолжительность : 1 ч. 36 м.
Вид битрейта : Постоянный
Битрейт : 448 Кбит/сек
Каналы : 6 каналов
Расположение каналов : Front: L C R, Side: L R, LFE
Частота : 48,0 КГц
Частота кадров : 31,250 кадров/сек (1536 SPF)
Битовая глубина : 16 бит
Метод сжатия : С потерями
Размер потока : 309 Мбайт (14%)
Default : Да
Forced : Нет
pb.wtf



Скачать Человек-амфибия через торрент http://d.radikal.ru/d23/1911/02/41d22af0372d.png Скачать, смотреть онлайн Человек-амфибия бесплантно в хорошем качестве Описание:Далекая южная страна взбудоражена появлением в прибрежных водах таинственного серебристого существа, которого молва окрестила ... 10 10 3
Info! Золотая раздача, скачанное не засчитывается.
Торрент: Зарегистрирован [2018-08-14 10:49] · скачан: 30 раз
Статус: √ проверено
Размер: 2.18 GB
Как cкачать? Как скачать Человек-амфибия через торрент | UTorrent

% Раздел Тема Автор DL S | L
Кино СССР [ 1.46 GB ] Человек-амфибия [1961 СССР BDRip-AVC от AVP Studio] AVP Studio Скачать
1 | 0
Кино СССР [ 746 MB ] Человек-амфибия [1961 СССР BDRip от AVP Studio] AVP Studio Скачать
1 | 0
Кино СССР [ 1.46 GB ] Человек-амфибия [1961 СССР BDRip от AVP Studio] AVP Studio Скачать
1 | 0
Наши фильмы (Blu-ray, BD-Remux, HDDVD) [ 20.43 GB ] Человек-амфибия [1961 BDRemux 1080р] -Lexx- Скачать
1 | 0
Наши фильмы (HD, WEB-DL 720p, 1080p) [ 9.22 GB ] Человек-амфибия [1961г ВDRip 1080p] diletant Скачать
1 | 0

28-11-2019 20:33  

Отключить всю рекламу на сайте

    Дорогой пользователь! Огромная просьба, поблагодарите релизера, оцените раздачу и оставьте свои комментарий, если Вы скачали Человек-амфибия через торрент бесплатно!
    Комментировать посты могут только пользователи прошедшие не сложную регистрацию
    Показать сообщения:    

    Человек-амфибия через торрент
    Скачать бесплатно Человек-амфибия
    Человек-амфибия скачать торрент
    Человек-амфибия смотреть онлайн
    Cкачать фильм Человек-амфибия бесплатно
    Человек-амфибия скачать торрент в хорошем качестве
    Человек-амфибия смотреть онлайн бесплатно в хорошем качестве


    Вы не можете начинать темы
    Вы не можете отвечать на сообщения
    Вы не можете редактировать свои сообщения
    Вы не можете удалять свои сообщения
    Вы не можете голосовать в опросах
    Вы не можете прикреплять файлы к сообщениям
    Вы можете скачивать файлы