Ссылка на приватное зеркало нашего сайта всего за 1$. Внимание количество ограничено!!!

2 сезон

iTunes

1 сезон

1

2 сезон

2 сезон

iTunes

1 сезон

RePack

30

Ultimate

ВАЖНО

ИГРА 18+

pack

RePack

MK11
pack

Забери бонус

RePack

jed

!!Акция!!

Alien_Rage

RePack

fifa19

RePack

Assassins Creed: Odyssey

RePack

NEED FOR SPEED™ PAYBACK

4 сезон

9 сезон

Бесстыжие 9 сезон

Все сериалы

все сериалы на PB.wtf

RePack

FAR CRY 5
  

Игроки / Футболисты / Ballers / Сезон: 4 / Серии: 1-9 из 9 (Питер Берг) [2018, драма, комедия, WEB-DLRip] MVO [Amedia] pb.wtf

Игроки через торрент pb.wtf

Размер: 3.42 GB | Добавлен: 2 года 1 мес. назад | Торрент скачан:79 раз
Скачать  

14-08-2018 11:00 Игроки Скачать торрент  

Игроки / Футболисты / Ballers Год выпуска: 2018
Страна: США
Жанр: драма, комедия
Продолжительность: 00:30:00
Перевод: Профессиональный (многоголосый закадровый) | Amedia
Студия озвучания: "Novamedia"
Субтитры: отсутствуют

Режиссёр: Питер Берг

В ролях:

Дуэйн Джонсон, Джасмин Саймон, Донован Картер, Роб Кордри, Трой Гэрити, Омар Бенсон Миллер, Джон Дэвид Вашингтон, Анабель Акоста, Дуле Хилл, Ариэль Кеббел

Описание:

Новый совместный проект Дуэйна «Скалы» Джонсона, Марка Уолберга и режиссера «Хэнкока» Питера Берга - комедийная драма НВО о жизни профессиональных игроков в американский футбол. Они зарабатывают миллионы, на них молятся фанаты, их показывают в новостях. Но помимо многочасовых тренировок, пятничных игр и вспышек фотокамер у них есть друзья, семьи и, конечно, проблемы – почти такие же, как у обычных людей. С девушкой помириться - это, знаете ли, не тачдаун оформить.

rating

Качество: WEB-DLRip
Формат: AVI

Видео: XviD, ~ 1500 kbps, 720x400, 25 fps
Аудио#1: MP3, 48,0 КГц, 2 ch, 128 kbps - RUS
Аудио#2: MP3, 48,0 КГц, 2 ch, 128 kbps - ENG
скриншот   скриншот   скриншот   скриншот   скриншот   скриншот   скриншот  
скриншот  

Общее
Полное имя : F:\кино\Ballers (S04) Amedia\Ballers .S04E01.WEB-DLRip.Rus.Eng.Amedia.avi
Формат : AVI
Формат/Информация : Audio Video Interleave
Размер файла : 400 Мбайт
Продолжительность : 31 м. 24 с.
Общий поток : 1782 Кбит/сек
Программа кодирования : VirtualDubMod 1.5.10.3 | www.virtualdub-fr.org || (build 2550/release)
Библиотека кодирования : VirtualDubMod build 2550/release

Видео
Идентификатор : 0
Формат : MPEG-4 Visual
Профиль формата : Advanced Simple@L5
Настройки формата : BVOP1 / Custom Matrix
Параметр BVOP формата : 1
Параметр QPel формата : Нет
Параметр GMC формата : Без точки перехода
Параметр матрицы формата : Выборочная
Идентификатор кодека : XVID
Идентификатор кодека/Подсказка : XviD
Продолжительность : 31 м. 24 с.
Битрейт : 1512 Кбит/сек
Ширина : 720 пикселей
Высота : 400 пикселей
Соотношение сторон : 16:9
Частота кадров : 25,000 кадров/сек
Цветовое пространство : YUV
Субдискретизация насыщенности : 4:2:0
Битовая глубина : 8 бит
Тип развёртки : Прогрессивная
Метод сжатия : С потерями
Бит/(Пиксели*Кадры) : 0.210
Размер потока : 340 Мбайт (85%)
Библиотека кодирования : XviD 73

Аудио #1
Идентификатор : 1
Формат : MPEG Audio
Версия формата : Version 1
Профиль формата : Layer 3
Настройки формата : Joint stereo / MS Stereo
Идентификатор кодека : 55
Идентификатор кодека/Подсказка : MP3
Продолжительность : 31 м. 24 с.
Вид битрейта : Постоянный
Битрейт : 128 Кбит/сек
Каналы : 2 канала
Частота : 48,0 КГц
Метод сжатия : С потерями
Размер потока : 28,8 Мбайт (7%)
Выравнивание : Соединение по промежуткам
Продолжительность промежутка : 40 мс. (1,00 видеокадр)
Время предзагрузки промежутка : 504 мс.

Аудио #2
Идентификатор : 2
Формат : MPEG Audio
Версия формата : Version 1
Профиль формата : Layer 3
Настройки формата : Joint stereo / MS Stereo
Идентификатор кодека : 55
Идентификатор кодека/Подсказка : MP3
Продолжительность : 31 м. 24 с.
Вид битрейта : Постоянный
Битрейт : 128 Кбит/сек
Каналы : 2 канала
Частота : 48,0 КГц
Метод сжатия : С потерями
Размер потока : 28,8 Мбайт (7%)
Выравнивание : Соединение по промежуткам
Продолжительность промежутка : 40 мс. (1,00 видеокадр)
Время предзагрузки промежутка : 504 мс.

Когда раздача ведётся путём добавления новых серий, при каждом добавлении создётся новый торрент. Чтобы начать докачку новой серии, пользователям необходимо сделать следующее:
(1) остановить скачивание,
(2) удалить старый торрент у себя из клиента (старые серии удалять не надо),
(3) скачать новый торрент и запустить его у себя в клиенте вместо старого, при этом указать клиенту путь в старую папку, куда и должно происходить скачивание новых серий.
Ваш клиент при этом должен произвести хеширование (проверку) старой папки (если не производит сам - помогите ему сделать это), и будет докачивать только те серии, которых у вас ещё нет. Старые серии при этом не удаляются, а продолжают раздаваться!
Eсли вы уже удалили старые серии, то предотвратить повторную закачку старых серий можно, отжав галочку в соответсвующих местах при запуске нового торрента. По возможности, желательно не удалять старые серии как можно дольше, чтобы релизёр не столько продолжал раздавать старые серии, а смог сконцентрироваться на новых.
pb.wtf



Скачать Игроки через торрент http://i69.fastpic.ru/big/2015/0704/7f/460ba548b07e966306eef082448a0c7f.png Скачать фильм Игроки через торрент бесплантно в хорошем качестве Описание: Новый совместный проект Дуэйна «Скалы» Джонсона, Марка Уолберга и режиссера «Хэнкока» Питера Берга - комедийная драма НВО о жизни ... 10 10 4
Торрент: Зарегистрирован [2018-10-08 22:59] · скачан: 79 раз
Статус: √ проверено
Размер: 3.42 GB
Как cкачать? Как скачать Игроки через торрент | qTorrent

% Раздел Тема Автор DL S | L
Зарубежные сериалы [ 6.55 GB ] Футболисты / Игроки / Ballers / Сезон: 4 / Серии: 1-9 из 9 [2018 WEB-DL 720p] MVO [Jaskier] bober100 Скачать
1 | 0
Зарубежные сериалы [ 3.25 GB ] Футболисты / Игроки / Ballers / Сезон: 4 / Серии: 1-9 из 9 [2018 WEB-DLRip] MVO [Jaskier] bober100 Скачать
1 | 0
Зарубежные сериалы [ 17.45 GB ] Игроки / Футболисты / Ballers / Сезон: 4 / Серии: 1-9 из 9 [2018 WEB-DL 1080p] MVO [Amedia] bober100 Скачать
1 | 0

28-11-2019 20:33  

Отключить всю рекламу на сайте

    Дорогой пользователь! Огромная просьба, поблагодарите релизера, оцените раздачу и оставьте свои комментарий, если Вы скачали Игроки через торрент бесплатно! Внесите свою лепту в развитие PiratBit!
    Комментировать посты могут только пользователи прошедшие не сложную регистрацию
    Показать сообщения:    

    Игроки через торрент
    Скачать бесплатно Игроки
    Игроки скачать торрент
    Игроки смотреть онлайн
    Cкачать фильм Игроки бесплатно
    Игроки скачать торрент в хорошем качестве
    Игроки смотреть онлайн бесплатно в хорошем качестве


    Вы не можете начинать темы
    Вы не можете отвечать на сообщения
    Вы не можете редактировать свои сообщения
    Вы не можете удалять свои сообщения
    Вы не можете голосовать в опросах
    Вы не можете прикреплять файлы к сообщениям
    Вы можете скачивать файлы