Ссылка на приватное зеркало нашего сайта всего за 1$. Внимание количество ограничено!!!

2 сезон

iTunes

1 сезон

1

iTunes

iTunes

iTunes

1 сезон

RePack

30

ИГРА 18+

pack

ВАЖНО

!!Акция!!

Alien_RageХит недели

RePack

MK11
pack

Забери бонус

RePack

jed

!!Акция!!

Alien_Rage

RePack

fifa19

RePack

Assassins Creed: Odyssey

RePack

NEED FOR SPEED™ PAYBACK

4 сезон

9 сезон

Бесстыжие 9 сезон

Все сериалы

все сериалы на PB.wtf

RePack

FAR CRY 5
  

Опер по вызову / Сезон: 3 / Серии: 1-24 из 24 (Тарас Ткаченко, Олександр Пархоменко) [2018, Детектив, криминал, WEB-DLRip] pb.wtf

Опер по вызову через торрент pb.wtf

Размер: 14.08 GB | Добавлен: 2 года назад | Торрент скачан:47 раз
Скачать  

14-08-2018 14:07 Опер по вызову Скачать торрент  

Опер по вызовуГод выпуска: 2018
Страна: Украина
Жанр: Детектив, криминал
Продолжительность: ~ 00:48:00
Перевод: Не требуется
Субтитры: отсутствуют

Режиссер: Тарас Ткаченко, Олександр Пархоменко



В ролях:

Павел Вишняков, Слава Красовская, Артём Мартынишин, Александр Пожарский, Александр Игнатуша, Валентина Ищенко, Василий Черношкур, Иван Залуский, Дмитрий Гаврилов (II), Ася Белая, Богдан Олейник

Описание:

В новых эпизодах Павел Вишняков появится на экранах в совершенно новых ролях – массажиста, узника, адепта секты, агента безопасности. Кстати, один из эпизодов сериала снимали в настоящей тюрьме: "Одна из сцен напоминает фильм "Зеленая миля". Прошлый сезон поразил эффектными кадрами взрывов и пожаров. А вот в продолжении, зрителей ждут зрелищные драки и перестрелки.

Качество: WEB-DLRip
Формат: AVI

Видео: XviD, ~ 1550 Кбит/с, 720x400
Аудио: AC3, 2 ch, 192 Кбит/с
скриншот  скриншот  скриншот  скриншот  скриншот  

General
Complete name : D:\Опер по вызову.s03.2018.WEB-DLRip.by.Nicodem.Files-x\29.Опер по вызову.s03.E01.2018.WEB-DLRip.by.Nicodem.Files-x.avi
Format : AVI
Format/Info : Audio Video Interleave
File size : 601 MiB
Duration : 48 min 57 s
Overall bit rate : 1 716 kb/s
Writing application : VirtualDubMod 1.5.10.3 | www.virtualdub-fr.org || (build 2550/release)
Writing library : VirtualDubMod build 2550/release

Video
ID : 0
Format : MPEG-4 Visual
Format profile : Advanced Simple@L5
Format settings : BVOP1 / QPel / Custom Matrix
Format settings, BVOP : 1
Format settings, QPel : Yes
Format settings, GMC : No warppoints
Format settings, Matrix : Custom
Codec ID : XVID
Codec ID/Hint : XviD
Duration : 48 min 57 s
Bit rate : 1 514 kb/s
Width : 720 pixels
Height : 400 pixels
Display aspect ratio : 16:9
Frame rate : 25.000 FPS
Color space : YUV
Chroma subsampling : 4:2:0
Bit depth : 8 bits
Scan type : Progressive
Compression mode : Lossy
Bits/(Pixel*Frame) : 0.210
Stream size : 530 MiB (88%)
Writing library : XviD 73

Audio
ID : 1
Format : AC-3
Format/Info : Audio Coding 3
Codec ID : 2000
Duration : 48 min 57 s
Bit rate mode : Constant
Bit rate : 192 kb/s
Channel(s) : 2 channels
Channel positions : Front: L R
Sampling rate : 48.0 kHz
Frame rate : 31.250 FPS (1536 SPF)
Bit depth : 16 bits
Compression mode : Lossy
Stream size : 67.2 MiB (11%)
Alignment : Split accross interleaves
Interleave, duration : 40 ms (1.00 video frame)
Interleave, preload duratio : 500 ms
Service kind : Complete Main

Внимание! Раздача ведётся путём добавления новых серий; при каждом добавлении создfётся новый торрент. Чтобы начать докачку новой серии, пользователям необходимо сделать следующее: (1) остановить скачивание, (2) удалить старый торрент у себя из клиента (старые серии удалять не надо), (3) скачать новый торрент и запустить его у себя в клиенте вместо старого, при этом указать клиенту путь в старую папку куда и должно происходить скачивание новых серий.

Ваш клиент при этом должен произвести хеширование (проверку) старой папки (если не производит сам - помогите ему сделать это), и будет докачивать только те серии которых у вас ещё нет. Старые серии при этом не удаляются, а продолжают раздаваться!

Eсли вы уже удалили старые серии, то предотвратить повторную закачку старых серий можно, отжав галочку в соответсвующих местах при запуске нового торрента.
pb.wtf



Скачать Опер по вызову через торрент http://i103.fastpic.ru/big/2018/0813/b1/fe4d481f7a642a7e1fed8329ca7570b1.jpg Скачать фильм Опер по вызову через торрент бесплантно в хорошем качестве Описание: В новых эпизодах Павел Вишняков появится на экранах в совершенно новых ролях – массажиста, узника, адепта секты, агента ... 5 10 5
Info! Золотая раздача, скачанное не засчитывается.
Торрент: Зарегистрирован [2018-09-21 01:27] · скачан: 47 раз
Статус: √ проверено
Размер: 14.08 GB
Как cкачать? Как скачать Опер по вызову через торрент | qTorrent

% Раздел Тема Автор DL S | L
Наши сериалы [ 16 GB ] Опер по вызову / Сезон: 3 / Серии: 1-24 из 24 [2018 WEB-DL 720p] bober100 Скачать
1 | 0
Наши сериалы [ 14.41 GB ] Опер по вызову / Сезон: 3 / Серии: 1-24 из 24 [2018 WEB-DLRip-AVC] bober100 Скачать
1 | 0

28-11-2019 20:33  

Отключить всю рекламу на сайте

    Дорогой пользователь! Огромная просьба, поблагодарите релизера, оцените раздачу и оставьте свои комментарий, если Вы скачали Опер по вызову через торрент бесплатно! Внесите свою лепту в развитие PiratBit!
    Комментировать посты могут только пользователи прошедшие не сложную регистрацию
    Показать сообщения:    

    Опер по вызову через торрент
    Скачать бесплатно Опер по вызову
    Опер по вызову скачать торрент
    Опер по вызову смотреть онлайн
    Cкачать фильм Опер по вызову бесплатно
    Опер по вызову скачать торрент в хорошем качестве
    Опер по вызову смотреть онлайн бесплатно в хорошем качестве


    Вы не можете начинать темы
    Вы не можете отвечать на сообщения
    Вы не можете редактировать свои сообщения
    Вы не можете удалять свои сообщения
    Вы не можете голосовать в опросах
    Вы не можете прикреплять файлы к сообщениям
    Вы можете скачивать файлы