Ссылка на приватное зеркало нашего сайта всего за 1$. Внимание количество ограничено!!!

2 сезон

iTunes

iTunes

1

iTunes

iTunes

iTunes

WEBRip

iTunes

30
pack

Вам бонус

ВАЖНО

!!Акция!!

Alien_RageХит недели

RePack

Horizon Zero Dawn

ИГРА 18+

pack

RePack

jed

!!Акция!!

Alien_Rage

RePack

fifa19

RePack

Assassins Creed: Odyssey

RePack

NEED FOR SPEED™ PAYBACK

4 сезон

9 сезон

Бесстыжие 9 сезон

Все сериалы

все сериалы на PB.wtf

RePack

FAR CRY 5
  

Уличный боец: Кулак убийцы / Street Fighter: Assassin's Fist (Джои Анса) [2014, фэнтези, боевик, триллер, драма, приключения, BDRip 720p] MVO [Официальный звук] pb.wtf

Уличный боец: Кулак убийцы через торрент pb.wtf

Размер: 4.91 GB | Добавлен: 2 года 1 мес. назад | Торрент скачан:145 раз
Скачать  

14-08-2018 16:14 Уличный боец: Кулак убийцы Скачать торрент  

Уличный боец: Кулак убийцы / Street Fighter: Assassin's Fist Год выпуска: 2014
Страна: Великобритания
Жанр: фэнтези, боевик, триллер, драма, приключения
Продолжительность: 01:44:26
Перевод: Профессиональный многоголосый | Официальный звук
Субтитры: отсутствуют

Режиссер: Джои Анса

rating

В ролях:

Того Игава, Крис Ховард, Майк Мо, Сёгэн, Гаку Спэйс, Акира Коиэяма, Джои Анса, Хюнри, Харукико Яманоути, Марк Киллин

Описание:

Сериал рассказывает о периоде становления бойцами Рю и Кена, когда они жили традиционной жизнью воинов в Японии. Парни и не подозревали, что являются последними людьми, познавшими древний боевой стиль, известный как «Ансацукен» (Кулак убийцы)...

Качество: BDRip 720p
Формат: MKV

Видео: h.264,6 272 kb/s, 1280x530
Аудио#1: Русский (AC3, 2 ch, 448 Кбит/с)
скриншот  скриншот  скриншот  

Общее
Уникальный идентификатор : 234643847128011443457298119847391657696 (0xB086C2DA662B7D45861223FBAFA9FEE0)
Полное имя : D:\Street Fighter Assassin's Fist.2O14.Pof.BDRip.72Op_KOSHARA.mkv
Формат : Matroska
Версия формата : Version 2
Размер файла : 4,91 Гбайт
Продолжительность : 1 ч. 44 м.
Режим общего битрейта : Переменный
Общий поток : 6722 Кбит/сек
Дата кодирования : UTC 2018-08-14 10:51:28
Программа кодирования : mkvmerge v8.3.0 ('Over the Horizon') 64bit
Библиотека кодирования : libebml v1.3.1 + libmatroska v1.4.2

Видео
Идентификатор : 1
Формат : AVC
Формат/Информация : Advanced Video Codec
Профиль формата : High@L4.1
Параметр CABAC формата : Да
Параметр RefFrames формата : 4 кадра
Идентификатор кодека : V_MPEG4/ISO/AVC
Продолжительность : 1 ч. 44 м.
Вид битрейта : Переменный
Битрейт : 6272 Кбит/сек
Максимальный битрейт : 6900 Кбит/сек
Ширина : 1280 пикселей
Высота : 530 пикселей
Соотношение сторон : 2,40:1
Режим частоты кадров : Постоянный
Частота кадров : 23,976 (24000/1001) кадра/сек
Стандарт вещания : Component
Цветовое пространство : YUV
Субдискретизация насыщенности : 4:2:0
Битовая глубина : 8 бит
Тип развёртки : Прогрессивная
Бит/(Пиксели*Кадры) : 0.377
Размер потока : 4,48 Гбайт (91%)
Default : Да
Forced : Нет
Цветовой диапазон : Limited
Основные цвета : BT.709
Характеристики трансфера : BT.709
Коэффициенты матрицы : BT.709

Аудио
Идентификатор : 2
Формат : AC-3
Формат/Информация : Audio Coding 3
Расширение режима : CM (complete main)
Параметр Endianness формата : Big
Идентификатор кодека : A_AC3
Продолжительность : 1 ч. 44 м.
Вид битрейта : Постоянный
Битрейт : 448 Кбит/сек
Каналы : 2 канала
Расположение каналов : Front: L R
Частота : 48,0 КГц
Частота кадров : 31,250 кадров/сек (1536 spf)
Метод сжатия : С потерями
Размер потока : 335 Мбайт (7%)
Default : Да
Forced : Нет

pb.wtf



Скачать Уличный боец: Кулак убийцы через торрент http://img11.lostpic.net/2018/08/14/7f82b471172841ad86af4d118b023fac.jpg Скачать фильм Уличный боец: Кулак убийцы через торрент бесплантно в хорошем качестве Описание: Сериал рассказывает о периоде становления бойцами Рю и Кена, когда они жили традиционной жизнью воинов в Японии. Парни и не ... 10 10 3
Торрент: Зарегистрирован [2018-08-14 16:15] · скачан: 145 раз
Статус: # сомнительно
Размер: 4.91 GB
Как cкачать? Как скачать Уличный боец: Кулак убийцы через торрент | qTorrent

28-11-2019 20:33  

Отключить всю рекламу на сайте

    Дорогой пользователь! Огромная просьба, поблагодарите релизера, оцените раздачу и оставьте свои комментарий, если Вы скачали Уличный боец: Кулак убийцы через торрент бесплатно! Внесите свою лепту в развитие PiratBit!
    Комментировать посты могут только пользователи прошедшие не сложную регистрацию
    Показать сообщения:    

    Уличный боец: Кулак убийцы через торрент
    Скачать бесплатно Уличный боец: Кулак убийцы
    Уличный боец: Кулак убийцы скачать торрент
    Уличный боец: Кулак убийцы смотреть онлайн
    Cкачать фильм Уличный боец: Кулак убийцы бесплатно
    Уличный боец: Кулак убийцы скачать торрент в хорошем качестве
    Уличный боец: Кулак убийцы смотреть онлайн бесплатно в хорошем качестве


    Вы не можете начинать темы
    Вы не можете отвечать на сообщения
    Вы не можете редактировать свои сообщения
    Вы не можете удалять свои сообщения
    Вы не можете голосовать в опросах
    Вы не можете прикреплять файлы к сообщениям
    Вы можете скачивать файлы