Ссылка на приватное зеркало нашего сайта всего за 1$. Внимание количество ограничено!!!

2 сезон

iTunes

1 сезон

1

2 сезон

2 сезон

iTunes

1 сезон

RePack

30

Новинка

ВАЖНО

ИГРА 18+

pack

RePack

MK11
pack

Забери бонус

RePack

jed

!!Акция!!

Alien_Rage

RePack

fifa19

RePack

Assassins Creed: Odyssey

RePack

NEED FOR SPEED™ PAYBACK

4 сезон

9 сезон

Бесстыжие 9 сезон

Все сериалы

все сериалы на PB.wtf

RePack

FAR CRY 5
  

Ложа 49 / Lodge 49 / Сезон: 1 / Серии: 1-10 из 10 (Рэндолл Айнхорн, Триша Брок, Джейк Шрейер) [2018, драма, комедия, WEB-DLRip] MVO [NewStudio] pb.wtf

Ложа 49 через торрент pb.wtf

Размер: 5.66 GB | Добавлен: 1 год 3 мес. назад | Торрент скачан:6 раз
Скачать  

15-08-2018 02:06 Ложа 49 Скачать торрент  

Ложа 49 / Lodge 49
Год выпуска: 2018
Страна: США
Жанр: драма, комедия
Продолжительность: ~ 00:57:00
Перевод: Профессиональный многоголосый | NewStudio
Субтитры: отсутствуют

Режиссер: Рэндолл Айнхорн, Триша Брок, Джейк Шрейер

rating

В ролях:

Уайатт Рассел, Брент Дженнингс, Соня Кэссиди, Линда Эмонд, Дэвид Паскуэзи, Эрик Аллан Крамер, Авис-Мари Барнс, Джимми Гонсалес, Нджема Уильямс, Андреа Майуро

Описание:

Бывший сёрфер присоединяется к братскому ордену «Ложа 49», находящемуся в Лонг-Бич. Главный герой надеется на возвращение к спокойному образу жизни, которого он не знал с момента смерти отца.

Качество: WEB-DLRip
Формат: AVI

Видео: XviD, ~ 1 700 Кбит/с, 720x400
Аудио#1: Русский MP3, 2 ch, 128 Кбит/с
Аудио#2: Английский MP3, 2 ch, 128 Кбит/с
скриншот  скриншот  скриншот  

Общее
Полное имя : E:\Lodge.49.s01.NewStudio\Lodge.49.s01e01.WEBDLRip.NewStudio.TV.avi
Формат : AVI
Формат/Информация : Audio Video Interleave
Размер файла : 700 Мбайт
Продолжительность : 52 м. 4 с.
Общий поток : 1880 Кбит/сек
Программа кодирования : VirtualDubMod 1.5.10.2 (build 2540/release)
Библиотека кодирования : VirtualDubMod build 2540/release

Видео
Идентификатор : 0
Формат : MPEG-4 Visual
Профиль формата : Advanced Simple@L5
Настройки формата : BVOP2 / QPel
Параметр BVOP формата : 2
Параметр QPel формата : Да
Параметр GMC формата : Без точки перехода
Параметр матрицы формата : Default (MPEG)
Режим смешивания : Сжатый битовый поток
Идентификатор кодека : XVID
Идентификатор кодека/Подсказка : XviD
Продолжительность : 52 м. 4 с.
Битрейт : 1610 Кбит/сек
Ширина : 720 пикселей
Высота : 400 пикселей
Соотношение сторон : 16:9
Частота кадров : 23,976 (24000/1001) кадра/сек
Цветовое пространство : YUV
Субдискретизация насыщенности : 4:2:0
Битовая глубина : 8 бит
Тип развёртки : Прогрессивная
Метод сжатия : С потерями
Бит/(Пиксели*Кадры) : 0.233
Размер потока : 600 Мбайт (86%)
Библиотека кодирования : XviD 67

Аудио #1
Идентификатор : 1
Формат : MPEG Audio
Версия формата : Version 1
Профиль формата : Layer 3
Настройки формата : Joint stereo / MS Stereo
Идентификатор кодека : 55
Идентификатор кодека/Подсказка : MP3
Продолжительность : 52 м. 4 с.
Вид битрейта : Постоянный
Битрейт : 128 Кбит/сек
Каналы : 2 канала
Частота : 48,0 КГц
Метод сжатия : С потерями
Размер потока : 47,7 Мбайт (7%)
Выравнивание : Соединение по промежуткам
Продолжительность промежутка : 42 мс. (1,00 видеокадр)
Время предзагрузки промежутка : 504 мс.

Аудио #2
Идентификатор : 2
Формат : MPEG Audio
Версия формата : Version 1
Профиль формата : Layer 3
Настройки формата : Joint stereo
Идентификатор кодека : 55
Идентификатор кодека/Подсказка : MP3
Продолжительность : 52 м. 4 с.
Вид битрейта : Постоянный
Битрейт : 128 Кбит/сек
Каналы : 2 канала
Частота : 48,0 КГц
Частота кадров : 41,667 кадра/сек (1152 SPF)
Метод сжатия : С потерями
Размер потока : 47,7 Мбайт (7%)
Выравнивание : Соединение по промежуткам
Продолжительность промежутка : 42 мс. (1,00 видеокадр)
Время предзагрузки промежутка : 504 мс.
Библиотека кодирования : LAME3.99r
Настройки программы : -m j -V 4 -q 2 -lowpass 17 -b 128

Внимание! Раздача ведётся путём добавления новых серий; при каждом добавлении создаётся новый торрент. Чтобы начать докачку новой серии, пользователям необходимо сделать следующее:
(1) остановить скачивание,
(2) удалить старый торрент-файл у себя из клиента (старые серии удалять не надо),
(3) скачать новый торрент-файл из раздачи и запустить его у себя в клиенте вместо старого, при этом указать клиенту путь в старую папку, куда и должно происходить скачивание новых серий.
pb.wtf



Скачать Ложа 49 через торрент http://pic1.kartinco.top/images/11/2zcvx.jpg Скачать фильм Ложа 49 через торрент бесплантно в хорошем качестве Описание: Бывший сёрфер присоединяется к братскому ордену «Ложа 49», находящемуся в Лонг-Бич. Главный герой надеется на возвращение к ... 10 10 2
Торрент: Зарегистрирован [2019-08-21 13:53] · скачан: 6 раз
Статус: √ проверено
Размер: 5.66 GB
Как cкачать? Как скачать Ложа 49 через торрент | qTorrent

% Раздел Тема Автор DL S | L
Зарубежные сериалы [ 39.38 GB ] Ложа 49 / Lodge 49 / Сезон: 1 / Серии: 1-10 из 10 [2018 WEB-DL 1080p] MVO [TVShows] bober100 Скачать
1 | 0
Зарубежные сериалы [ 13.65 GB ] Ложа 49 / Lodge 49 / Сезон: 1 / Серии: 1-10 из 10 [2018 WEB-DL 720p] MVO [TVShows] bober100 Скачать
1 | 0
Зарубежные сериалы [ 17.91 GB ] Ложа 49 / Lodge 49 / Сезон: 2 / Серии: 1-10 из 10 [2019 WEB-DL 1080p] [MVO] killermax2013 Скачать
1 | 0
Зарубежные сериалы [ 12.57 GB ] Ложа 49 / Lodge 49 / Сезон: 1 / Серии: 1-10 из 10 [2018 WEB-DL 720p] MVO [Jaskier] bober100 Скачать
1 | 0
Зарубежные сериалы [ 5.42 GB ] Ложа 49 / Lodge 49 / Сезон: 1 / Серии: 1-10 из 10 [2018 WEB-DLRip] MVO [Jaskier] bober100 Скачать
1 | 0


Последний раз редактировалось: bober100 (2019-08-21 13:52), всего редактировалось 2 раз(а)

28-11-2019 20:33  

Отключить всю рекламу на сайте

15-08-2018 08:20 Ложа 49 Скачать торрент  

Кароший серунчик, свеженький такой.pb.wtf



    Дорогой пользователь! Огромная просьба, поблагодарите релизера, оцените раздачу и оставьте свои комментарий, если Вы скачали Ложа 49 через торрент бесплатно! Внесите свою лепту в развитие PiratBit!
    Комментировать посты могут только пользователи прошедшие не сложную регистрацию
    Показать сообщения:    

    Ложа 49 через торрент
    Скачать бесплатно Ложа 49
    Ложа 49 скачать торрент
    Ложа 49 смотреть онлайн
    Cкачать фильм Ложа 49 бесплатно
    Ложа 49 скачать торрент в хорошем качестве
    Ложа 49 смотреть онлайн бесплатно в хорошем качестве


    Вы не можете начинать темы
    Вы не можете отвечать на сообщения
    Вы не можете редактировать свои сообщения
    Вы не можете удалять свои сообщения
    Вы не можете голосовать в опросах
    Вы не можете прикреплять файлы к сообщениям
    Вы можете скачивать файлы